<?xml version="1.0" standalone="no"?>
<!DOCTYPE svg PUBLIC "-//W3C//DTD SVG 1.1//EN" "http://www.w3.org/Graphics/SVG/1.1/DTD/svg11.dtd" >
<svg xmlns="http://www.w3.org/2000/svg" xmlns:xlink="http://www.w3.org/1999/xlink" version="1.1">
<metadata>
Created by FontForge 20190801 at Thu Sep 23 20:49:25 2010
 By Jimmy Wärting
Copyright (c) 2010 by Leftloft. All rights reserved.
</metadata>
<defs>
<font id="LFTEtica-ExtraBold" horiz-adv-x="600" >
  <font-face 
    font-family="LFT Etica XB"
    font-weight="800"
    font-stretch="normal"
    units-per-em="1000"
    panose-1="2 0 5 3 4 0 0 2 0 4"
    ascent="730"
    descent="-270"
    x-height="531"
    cap-height="720"
    bbox="-234 -282 2267.75 984"
    underline-thickness="50"
    underline-position="-100"
    stemh="195"
    stemv="217"
    unicode-range="U+0020-FB04"
  />
<missing-glyph horiz-adv-x="163" 
 />
    <glyph glyph-name="ff" unicode="ff" horiz-adv-x="687" 
d="M77 0v384h-69v113l69 22v10c0 122 52 190 174 191c44 0 82 -5 113 -12l-19 -131c-9 3 -16 4 -27 4c-24 0 -33 -15 -33 -37v-13h111v21c0 108 61 180 186 180c45 0 79 -5 116 -15l-11 -132c-15 5 -32 8 -46 8c-27 0 -37 -15 -37 -37v-25h78v-147h-78v-384h-208v384h-111
v-384h-208z" />
    <glyph glyph-name="fi" unicode="fi" horiz-adv-x="648" 
d="M605 531v-531h-208v384h-112v-384h-208v384h-69v113l69 22v20c0 122 50 193 172 193c40 0 63 -4 96 -10v-133c-9 3 -16 4 -27 4c-27 0 -33 -17 -33 -42v-20h320zM398 665c0 60 39 90 103 90c65 0 103 -30 103 -90c0 -59 -37 -88 -103 -88c-63 0 -103 29 -103 88z" />
    <glyph glyph-name="fl" unicode="fl" horiz-adv-x="645" 
d="M77 0v384h-69v113l69 22v20c0 122 50 193 172 193c40 0 63 -4 96 -10v-133c-9 3 -16 4 -27 4c-27 0 -33 -17 -33 -42v-20h111v189h208v-720h-208v384h-111v-384h-208z" />
    <glyph glyph-name="ft" unicode="ft" horiz-adv-x="703" 
d="M685 384h-83v-208c0 -23 8 -33 32 -33c15 0 29 3 42 6l18 -138c-49 -16 -93 -23 -144 -23c-111 0 -156 60 -156 148v248h-109v-384h-208v384h-69v113l69 22v20c0 122 50 193 172 193c40 0 63 -4 96 -10v-133c-9 3 -16 4 -27 4c-27 0 -33 -17 -33 -42v-20h114l16 161h187
v-161h83v-147z" />
    <glyph glyph-name="tt" unicode="tt" horiz-adv-x="701" 
d="M683 384h-83v-208c0 -23 8 -33 32 -33c15 0 29 3 42 6l18 -138c-49 -16 -93 -23 -144 -23c-111 0 -156 60 -156 148v248h-104v-208c0 -22 2 -35 25 -35c6 0 14 1 24 3l14 -138c-33 -11 -84 -18 -123 -18c-111 0 -148 60 -148 148v248h-72v112l77 34l16 162h187v-161h109
l16 161h187v-161h83v-147z" />
    <glyph glyph-name="ffi" unicode="ffi" horiz-adv-x="968" 
d="M397 0v384h-112v-384h-208v384h-69v113l69 22v10c0 122 52 190 174 191c44 0 74 -5 105 -12l-11 -131c-9 3 -16 4 -27 4c-24 0 -33 -15 -33 -37v-13h112v8c0 122 50 193 172 193c40 0 63 -4 96 -10v-133c-9 3 -16 4 -27 4c-27 0 -33 -17 -33 -42v-20h320v-531h-208v384
h-112v-384h-208zM718 665c0 60 39 90 103 90c65 0 103 -30 103 -90c0 -59 -37 -88 -103 -88c-63 0 -103 29 -103 88z" />
    <glyph glyph-name="ffl" unicode="ffl" horiz-adv-x="964" 
d="M396 0v384h-111v-384h-208v384h-69v113l69 22v10c0 122 52 190 174 191c44 0 74 -5 105 -12l-11 -131c-9 3 -16 4 -27 4c-24 0 -33 -15 -33 -37v-13h111v8c0 122 50 193 172 193c40 0 63 -4 96 -10v-133c-9 3 -16 4 -27 4c-27 0 -33 -17 -33 -42v-20h111v189h208v-720
h-208v384h-111v-384h-208z" />
    <glyph glyph-name="fft" unicode="fft" horiz-adv-x="1021" 
d="M1003 384h-83v-208c0 -23 8 -33 32 -33c15 0 29 3 42 6l18 -138c-49 -16 -93 -23 -144 -23c-111 0 -156 60 -156 148v248h-107v-384h-208v384h-112v-384h-208v384h-69v113l69 22v10c0 122 52 190 174 191c44 0 74 -5 105 -12l-11 -131c-9 3 -16 4 -27 4
c-24 0 -33 -15 -33 -37v-13h112v8c0 122 50 193 172 193c40 0 63 -4 96 -10v-133c-9 3 -16 4 -27 4c-27 0 -33 -17 -33 -42v-20h112l16 161h187v-161h83v-147z" />
    <glyph glyph-name=".notdef" horiz-adv-x="163" 
 />
    <glyph glyph-name=".notdef" horiz-adv-x="163" 
 />
    <glyph glyph-name="space" unicode=" " horiz-adv-x="175" 
 />
    <glyph glyph-name="quotesingle" unicode="'" horiz-adv-x="225" 
d="M175 720v-298h-125v298h125z" />
    <glyph glyph-name="quotedbl" unicode="&#x22;" horiz-adv-x="403" 
d="M353 720v-298h-126v298h126zM175 720v-298h-125v298h125z" />
    <glyph glyph-name="numbersign" unicode="#" horiz-adv-x="704" 
d="M312 368l-30 -92h100l31 92h-101zM677 368h-135l-32 -92h103v-124h-143l-56 -151l-119 29l45 122h-98l-58 -151l-119 29l45 122h-81v124h124l32 92h-92v125h133l59 160l120 -24l-48 -136h98l60 160l120 -24l-49 -136h91v-125z" />
    <glyph glyph-name="ampersand" unicode="&#x26;" horiz-adv-x="747" 
d="M591 -12l-74 78c-72 -59 -135 -78 -226 -78c-151 0 -247 81 -247 210c0 113 69 177 143 225c-36 37 -57 80 -57 128c0 102 73 182 222 182c119 0 211 -50 211 -163c0 -82 -60 -127 -100 -157l33 -41l91 88l113 -114l-94 -91l131 -143zM312 146c39 0 67 14 88 36l-114 128
c-30 -21 -53 -49 -53 -92c0 -30 21 -72 79 -72zM316 565c0 -21 13 -39 37 -62c22 17 42 37 42 61c0 23 -12 39 -39 39c-29 0 -40 -18 -40 -38z" />
    <glyph glyph-name="ampersand.alt" horiz-adv-x="747" 
d="M598 523h-185c0 45 -14 57 -39 57c-23 0 -36 -13 -36 -31c0 -14 4 -26 19 -41l128 -127l91 88l124 -123l-94 -91l131 -143l-146 -124l-78 80c-72 -59 -138 -80 -232 -80c-148 0 -240 81 -240 210c0 113 64 177 140 225c-35 37 -53 80 -53 123c0 107 75 187 242 187
c174 0 227 -86 228 -210zM314 147c37 0 62 13 87 38l-116 122c-27 -22 -49 -44 -49 -88c0 -33 24 -72 78 -72z" />
    <glyph glyph-name="asterisk" unicode="*" horiz-adv-x="476" 
d="M337 346l-98 91l-95 -91l-73 58l63 93l-105 52l29 82l111 -22l22 112h86l21 -112l119 21l30 -80l-99 -50l61 -96z" />
    <glyph glyph-name="comma" unicode="," horiz-adv-x="269" 
d="M19 91c0 57 47 100 111 100c84 0 119 -63 119 -129c0 -105 -55 -191 -182 -237l-40 82c61 26 83 61 87 100c-52 -6 -95 31 -95 84z" />
    <glyph glyph-name="hyphen" unicode="-" horiz-adv-x="320" 
d="M25 202v154h270v-154h-270z" />
    <glyph glyph-name="period" unicode="." horiz-adv-x="256" 
d="M20 90c0 62 43 102 109 102c65 0 107 -40 107 -102c0 -59 -40 -102 -107 -102c-69 0 -109 43 -109 102z" />
    <glyph glyph-name="colon" unicode=":" horiz-adv-x="256" 
d="M20 90c0 62 43 102 109 102c65 0 107 -40 107 -102c0 -59 -40 -102 -107 -102c-69 0 -109 43 -109 102zM20 424c0 62 43 102 109 102c65 0 107 -40 107 -102c0 -59 -40 -102 -107 -102c-69 0 -109 43 -109 102z" />
    <glyph glyph-name="semicolon" unicode=";" horiz-adv-x="269" 
d="M19 91c0 57 47 100 111 100c84 0 119 -63 119 -129c0 -105 -55 -191 -182 -237l-40 82c61 26 83 61 87 100c-52 -6 -95 31 -95 84zM21 424c0 62 43 102 109 102c65 0 107 -40 107 -102c0 -59 -40 -102 -107 -102c-69 0 -109 43 -109 102z" />
    <glyph glyph-name="question" unicode="?" horiz-adv-x="580" 
d="M198 233v32c0 139 139 183 139 247c0 28 -21 46 -53 46c-38 0 -67 -17 -67 -70h-192c0 183 130 244 287 244c126 0 241 -57 241 -195c0 -168 -151 -189 -151 -287v-17h-204zM192 90c0 62 43 102 109 102c65 0 107 -40 107 -102c0 -59 -40 -102 -107 -102
c-69 0 -109 43 -109 102z" />
    <glyph glyph-name="exclam" unicode="!" horiz-adv-x="326" 
d="M76 233l-18 255v232h211v-232l-19 -255h-174zM55 90c0 62 43 102 109 102c65 0 107 -40 107 -102c0 -59 -40 -102 -107 -102c-69 0 -109 43 -109 102z" />
    <glyph glyph-name="exclamdown" unicode="&#xa1;" horiz-adv-x="326" 
d="M58 43l18 255h174l19 -255v-232h-211v232zM55 441c0 59 40 102 109 102c67 0 107 -43 107 -102c0 -62 -42 -102 -107 -102c-66 0 -109 40 -109 102z" />
    <glyph glyph-name="questiondown" unicode="&#xbf;" horiz-adv-x="580" 
d="M388 298v-32c0 -139 -139 -183 -139 -247c0 -28 21 -46 53 -46c38 0 67 17 67 70h192c0 -183 -130 -244 -287 -244c-126 0 -241 57 -241 195c0 168 151 189 151 287v17h204zM394 441c0 -62 -43 -102 -109 -102c-65 0 -107 40 -107 102c0 59 40 102 107 102
c69 0 109 -43 109 -102z" />
    <glyph glyph-name="at" unicode="@" horiz-adv-x="972" 
d="M529 185c41 152 39 152 39 152c-12 6 -27 9 -48 9c-90 0 -143 -94 -143 -178c0 -45 19 -77 59 -77c43 0 79 40 93 94zM694 391l-54 -218c-6 -25 -10 -38 -10 -47c0 -18 15 -26 32 -26c89 0 141 130 141 206c0 160 -125 244 -277 244c-204 0 -351 -142 -351 -355
c0 -185 112 -308 316 -308c98 0 205 26 290 91l51 -78c-102 -80 -223 -109 -336 -109c-266 0 -428 153 -428 405c0 272 204 450 461 450c223 0 382 -133 382 -331c0 -205 -150 -317 -279 -317c-50 0 -88 27 -101 70c-34 -45 -76 -68 -131 -68c-82 0 -132 57 -132 161
c0 161 112 275 260 275c72 0 117 -18 166 -45z" />
    <glyph glyph-name="A" unicode="A" horiz-adv-x="733" 
d="M245 720h247l245 -720h-238l-35 113h-206l-36 -113h-226zM296 268h130l-61 241z" />
    <glyph glyph-name="B" unicode="B" horiz-adv-x="676" 
d="M45 0v720h317c146 0 263 -55 263 -189c0 -75 -40 -138 -118 -154v-2c100 -17 144 -93 144 -167c0 -164 -122 -208 -301 -208h-305zM354 295h-92v-128h95c47 0 73 28 73 66c0 40 -31 62 -76 62zM344 554h-82v-109h79c41 0 75 13 75 57c0 39 -27 52 -72 52z" />
    <glyph glyph-name="C" unicode="C" horiz-adv-x="694" 
d="M581 254l89 -147c-89 -78 -192 -119 -307 -119c-220 0 -335 152 -335 368c0 221 121 377 353 377c155 0 289 -89 295 -292h-211c-5 66 -31 101 -93 101c-70 0 -117 -48 -117 -185c0 -122 53 -173 135 -173c75 0 138 33 191 70z" />
    <glyph glyph-name="D" unicode="D" horiz-adv-x="720" 
d="M328 535h-66v-350h66c92 0 137 56 137 172c0 117 -45 178 -137 178zM45 720h289c242 0 358 -153 358 -363c0 -241 -123 -357 -393 -357h-31h-223v720z" />
    <glyph glyph-name="E" unicode="E" horiz-adv-x="595" 
d="M45 0v720h516v-189h-299v-91h272v-165h-272v-90h302v-185h-519z" />
    <glyph glyph-name="F" unicode="F" horiz-adv-x="575" 
d="M45 0v720h512v-189h-295v-112h258v-175h-258v-244h-217z" />
    <glyph glyph-name="G" unicode="G" horiz-adv-x="711" 
d="M383 248v145h292v-294c-87 -87 -197 -111 -305 -111c-252 0 -342 177 -342 367c0 218 104 378 353 378c196 0 282 -111 294 -267h-214c-6 49 -31 76 -87 76c-72 0 -119 -56 -119 -182c0 -110 35 -191 123 -191c42 0 79 10 106 34v45h-101z" />
    <glyph glyph-name="H" unicode="H" horiz-adv-x="720" 
d="M45 0v720h217v-270h196v270h217v-720h-217v255h-196v-255h-217z" />
    <glyph glyph-name="I" unicode="I" horiz-adv-x="307" 
d="M45 0v720h217v-720h-217z" />
    <glyph glyph-name="J" unicode="J" horiz-adv-x="430" 
d="M390 720v-502c0 -158 -75 -230 -207 -230c-76 0 -135 11 -168 20l10 171c22 -6 51 -9 80 -9c54 0 68 19 68 77v473h217z" />
    <glyph glyph-name="J.alt" horiz-adv-x="430" 
d="M390 720v-474c0 -174 -89 -246 -242 -246h-134v191h76c69 0 83 19 83 77v452h217z" />
    <glyph glyph-name="K" unicode="K" horiz-adv-x="704" 
d="M45 0v720h217v-273h50l140 273h241l-195 -359l209 -361h-246l-148 271h-51v-271h-217z" />
    <glyph glyph-name="L" unicode="L" horiz-adv-x="568" 
d="M45 720h217v-535h285v-185h-502v720z" />
    <glyph glyph-name="M" unicode="M" horiz-adv-x="888" 
d="M867 0h-200l-31 367l-111 -367h-154l-116 366l-30 -366h-204l68 720h230l128 -457h5l127 457h226z" />
    <glyph glyph-name="N" unicode="N" horiz-adv-x="727" 
d="M45 0v720h186l238 -370v370h213v-720h-186l-238 350v-350h-213z" />
    <glyph glyph-name="O" unicode="O" horiz-adv-x="791" 
d="M255 360c0 -98 43 -176 141 -176s140 78 140 176c0 94 -42 177 -140 177s-141 -83 -141 -177zM28 360c0 221 136 372 368 372c231 0 368 -151 368 -372c0 -225 -137 -372 -371 -372c-236 0 -365 147 -365 372z" />
    <glyph glyph-name="P" unicode="P" horiz-adv-x="647" 
d="M332 530h-70v-156h68c52 0 79 31 79 77c0 45 -25 79 -77 79zM45 0v720h305c168 0 273 -93 273 -253c0 -163 -94 -262 -280 -262h-81v-205h-217z" />
    <glyph glyph-name="Q" unicode="Q" horiz-adv-x="791" 
d="M709 -102l-277 92c-13 -1 -26 -2 -39 -2c-236 0 -365 147 -365 372c0 221 136 372 368 372c231 0 368 -151 368 -372c0 -108 -47 -196 -112 -254v-6l119 -34zM255 360c0 -98 43 -176 141 -176s140 78 140 176c0 94 -42 177 -140 177s-141 -83 -141 -177z" />
    <glyph glyph-name="Q.alt" horiz-adv-x="791" 
d="M28 360c0 221 136 372 368 372c231 0 368 -151 368 -372c0 -188 -96 -322 -263 -360v-145h-207v143c-173 35 -266 170 -266 362zM255 360c0 -98 43 -176 141 -176s140 78 140 176c0 94 -42 177 -140 177s-141 -83 -141 -177z" />
    <glyph glyph-name="R" unicode="R" horiz-adv-x="684" 
d="M45 720h303c186 0 283 -97 283 -243c0 -94 -33 -158 -101 -200l143 -277h-240l-102 223h-69v-223h-217v720zM336 530h-74v-151h71c53 0 81 29 81 76c0 48 -26 75 -78 75z" />
    <glyph glyph-name="S" unicode="S" horiz-adv-x="630" 
d="M5 110l104 142c58 -40 151 -84 209 -84c40 0 54 13 54 34c0 34 -42 42 -129 68c-117 35 -203 97 -203 218c0 173 129 245 282 245c119 0 217 -50 283 -117l-101 -126c-51 38 -113 67 -171 67c-37 0 -52 -10 -52 -31c0 -26 28 -37 101 -60c108 -34 219 -77 219 -233
c0 -142 -108 -245 -281 -245c-124 0 -240 53 -315 122z" />
    <glyph glyph-name="T" unicode="T" horiz-adv-x="640" 
d="M212 0v531h-200v189h616v-189h-200v-531h-216z" />
    <glyph glyph-name="U" unicode="U" horiz-adv-x="701" 
d="M40 720h217v-439c0 -72 38 -102 93 -102c58 0 95 29 95 102v439h216v-440c0 -197 -117 -292 -311 -292c-200 0 -310 95 -310 292v440z" />
    <glyph glyph-name="V" unicode="V" horiz-adv-x="697" 
d="M218 0l-223 720h232l123 -472l125 472h227l-224 -720h-260z" />
    <glyph glyph-name="W" unicode="W" horiz-adv-x="931" 
d="M147 0l-151 720h212l76 -433l87 433h192l83 -435l76 435h213l-151 -720h-229l-88 396h-6l-87 -396h-227z" />
    <glyph glyph-name="X" unicode="X" horiz-adv-x="706" 
d="M-10 0l229 361l-212 359h235l110 -204l108 204h249l-231 -370l221 -350h-251l-107 185l-108 -185h-243z" />
    <glyph glyph-name="Y" unicode="Y" horiz-adv-x="711" 
d="M242 0v251l-246 469h236l121 -275l120 275h242l-257 -467v-253h-216z" />
    <glyph glyph-name="Z" unicode="Z" horiz-adv-x="651" 
d="M24 0v135l280 396h-271v189h598v-85l-313 -450h312v-185h-606z" />
    <glyph glyph-name="a" unicode="a" horiz-adv-x="564" 
d="M320 164v40c-9 3 -22 5 -39 5c-39 0 -67 -12 -67 -48c0 -32 19 -45 49 -45c32 0 57 23 57 48zM528 334v-334h-168l-18 56c-31 -43 -92 -68 -153 -68c-100 0 -170 48 -170 157c0 101 77 161 238 161c26 0 44 -1 63 -3v33c0 41 -25 57 -66 57c-61 0 -117 -13 -171 -34
l-40 129c68 31 155 55 232 55c168 0 253 -61 253 -209z" />
    <glyph glyph-name="b" unicode="b" horiz-adv-x="630" 
d="M249 353v-181c14 -14 39 -27 68 -27c45 0 72 35 72 117c0 84 -20 121 -67 121c-27 0 -57 -13 -73 -30zM201 0h-160v720h208v-228c32 30 79 51 140 51c111 0 219 -75 219 -272c0 -183 -72 -283 -243 -283c-64 0 -112 29 -145 68z" />
    <glyph glyph-name="c" unicode="c" horiz-adv-x="564" 
d="M485 190l51 -127c-54 -37 -140 -75 -241 -75c-151 0 -273 89 -273 273c0 161 101 282 288 282c150 0 237 -72 237 -229h-174c-2 49 -18 74 -57 74c-44 0 -74 -37 -74 -120c0 -80 33 -122 92 -122c46 0 94 16 151 44z" />
    <glyph glyph-name="d" unicode="d" horiz-adv-x="626" 
d="M408 0l-14 61c-26 -36 -78 -73 -157 -73c-141 0 -215 98 -215 276c0 194 113 279 233 279c46 0 92 -17 126 -46v223h208v-720h-181zM381 173v180c-15 16 -39 28 -68 28c-47 0 -71 -38 -71 -115c0 -70 17 -119 71 -119c28 0 53 10 68 26z" />
    <glyph glyph-name="e" unicode="e" horiz-adv-x="578" 
d="M491 169l38 -124c-64 -34 -138 -57 -231 -57c-176 0 -276 105 -276 272c0 172 108 283 281 283c161 0 255 -81 255 -247c0 -19 -1 -62 -5 -77h-311c2 -42 26 -82 93 -82c42 0 92 12 156 32zM242 325h119c-1 47 -15 80 -56 80c-46 0 -63 -42 -63 -80z" />
    <glyph glyph-name="f" unicode="f" horiz-adv-x="368" 
d="M77 0v384h-59v120l59 22v22c0 121 59 184 187 184c44 0 78 -4 114 -14l-10 -133c-15 5 -32 8 -46 8c-26 0 -37 -15 -37 -37v-25h79v-147h-79v-384h-208z" />
    <glyph glyph-name="g" unicode="g" horiz-adv-x="628" 
d="M589 531v-480c0 -198 -88 -260 -258 -260c-96 0 -181 19 -227 37l28 139c48 -12 106 -26 161 -26c72 0 96 22 96 92v35c-36 -46 -92 -66 -147 -66c-126 0 -220 74 -220 257c0 180 85 284 231 284c66 0 118 -28 152 -62l15 50h169zM381 187v165c-15 17 -38 32 -67 32
c-51 0 -72 -45 -72 -116c0 -75 22 -107 73 -107c28 0 50 11 66 26z" />
    <glyph glyph-name="h" unicode="h" horiz-adv-x="597" 
d="M41 720h208v-228c30 25 71 51 142 51c112 0 170 -62 170 -178v-365h-208v313c0 52 -11 66 -43 66c-25 0 -49 -16 -61 -29v-350h-208v720z" />
    <glyph glyph-name="i" unicode="i" horiz-adv-x="294" 
d="M34 665c0 63 49 95 113 95c65 0 113 -32 113 -95c0 -62 -47 -93 -113 -93c-63 0 -113 29 -113 93zM251 531v-531h-208v531h208z" />
    <glyph glyph-name="j" unicode="j" horiz-adv-x="290" 
d="M249 531v-557c0 -121 -57 -183 -185 -183c-43 0 -80 5 -111 14l11 132c14 -3 26 -4 39 -4c27 0 38 9 38 42v556h208zM34 665c0 63 49 95 113 95c65 0 113 -32 113 -95c0 -62 -47 -93 -113 -93c-63 0 -113 29 -113 93z" />
    <glyph glyph-name="j.alt" horiz-adv-x="290" 
d="M249 531v-534c0 -139 -57 -201 -219 -201h-74v168h34c44 0 51 13 51 46v521h208zM34 665c0 63 49 95 113 95c65 0 113 -32 113 -95c0 -62 -47 -93 -113 -93c-63 0 -113 29 -113 93z" />
    <glyph glyph-name="k" unicode="k" horiz-adv-x="601" 
d="M249 720v-352h26l88 163h223l-139 -241l162 -290h-236l-104 207h-20v-207h-208v720h208z" />
    <glyph glyph-name="l" unicode="l" horiz-adv-x="290" 
d="M249 0h-208v720h208v-720z" />
    <glyph glyph-name="m" unicode="m" horiz-adv-x="872" 
d="M41 531h170l19 -55c31 33 79 67 150 67c62 0 108 -25 135 -69c35 33 88 69 164 69c93 0 156 -62 156 -173v-370h-208v322c0 41 -7 55 -35 55c-21 0 -40 -14 -50 -22v-355h-208v322c0 41 -6 56 -35 56c-21 0 -40 -14 -50 -24v-354h-208v531z" />
    <glyph glyph-name="m.alt" horiz-adv-x="872" 
d="M41 531h277c62 0 109 -24 130 -71c56 59 117 83 188 83c128 0 199 -62 199 -173v-370h-208v322c0 34 -5 53 -33 53c-21 0 -42 -11 -52 -19v-356h-208v330c0 38 -16 47 -45 47h-40v-377h-208v531z" />
    <glyph glyph-name="n" unicode="n" horiz-adv-x="597" 
d="M41 531h170l19 -55c32 33 90 67 161 67c112 0 170 -62 170 -178v-365h-208v313c0 52 -12 66 -44 66c-25 0 -48 -16 -60 -29v-350h-208v531z" />
    <glyph glyph-name="o" unicode="o" horiz-adv-x="630" 
d="M242 266c0 -85 27 -119 74 -119c43 0 72 34 72 119s-28 120 -72 120c-47 0 -74 -36 -74 -120zM22 266c0 193 137 277 296 277c171 0 290 -83 290 -277c0 -190 -135 -278 -302 -278c-162 0 -284 88 -284 278z" />
    <glyph glyph-name="p" unicode="p" horiz-adv-x="631" 
d="M249 353v-183c15 -14 37 -24 64 -24c47 0 74 34 74 116c0 84 -19 122 -66 122c-26 0 -54 -14 -72 -31zM249 -200h-208v731h169l23 -53c47 47 95 65 156 65c111 0 218 -75 218 -272c0 -183 -77 -283 -222 -283c-67 0 -111 27 -136 46v-234z" />
    <glyph glyph-name="q" unicode="q" horiz-adv-x="625" 
d="M380 -200v238c-23 -22 -64 -50 -130 -50c-154 0 -228 98 -228 270c0 200 113 285 237 285c46 0 101 -14 146 -57l30 45h154v-731h-209zM381 173v180c-14 17 -39 29 -68 29c-47 0 -71 -39 -71 -116c0 -70 18 -120 72 -120c28 0 52 12 67 27z" />
    <glyph glyph-name="r" unicode="r" horiz-adv-x="396" 
d="M201 531l25 -66c25 45 61 78 105 78c24 0 43 -5 60 -13l-13 -180c-23 5 -33 7 -57 7c-26 0 -56 -18 -72 -41v-316h-208v531h160z" />
    <glyph glyph-name="s" unicode="s" horiz-adv-x="528" 
d="M12 80l78 116c42 -26 118 -61 163 -61c24 0 33 9 33 26c0 22 -19 26 -79 41c-93 24 -163 60 -163 157c0 123 97 184 226 184c92 0 187 -34 238 -75l-73 -109c-39 24 -104 44 -135 44c-22 0 -33 -10 -33 -23c0 -19 19 -26 72 -40c88 -23 169 -54 169 -162
c0 -121 -90 -190 -236 -190c-106 0 -202 43 -260 92z" />
    <glyph glyph-name="t" unicode="t" horiz-adv-x="389" 
d="M371 384h-83v-208c0 -23 8 -33 32 -33c15 0 29 3 42 6l18 -138c-49 -16 -93 -23 -144 -23c-111 0 -156 60 -156 148v248h-72v112l77 34l16 162h187v-161h83v-147z" />
    <glyph glyph-name="u" unicode="u" horiz-adv-x="598" 
d="M557 0h-165l-26 60c-33 -44 -84 -72 -155 -72c-115 0 -175 66 -175 176v367h209v-326c0 -38 12 -57 44 -57c25 0 50 14 61 27v356h207v-531z" />
    <glyph glyph-name="v" unicode="v" horiz-adv-x="566" 
d="M-4 531h208l85 -336l83 336h198l-161 -531h-246z" />
    <glyph glyph-name="w" unicode="w" horiz-adv-x="824" 
d="M624 531h206l-153 -531h-213l-48 275h-5l-51 -275h-216l-142 531h206l59 -305l51 305h196l52 -305z" />
    <glyph glyph-name="x" unicode="x" horiz-adv-x="589" 
d="M-15 0l179 266l-157 265h217l71 -137l83 137h213l-170 -268l173 -263h-227l-79 131l-82 -131h-221z" />
    <glyph glyph-name="y" unicode="y" horiz-adv-x="562" 
d="M360 531h210l-185 -529c-54 -153 -105 -211 -239 -211c-51 0 -91 7 -117 13l19 148c17 -2 47 -5 73 -5c32 0 51 12 61 45l4 13l-183 526h211l72 -328h4z" />
    <glyph glyph-name="y.alt" horiz-adv-x="575" 
d="M101 -200v156h74c29 0 32 10 32 25v37l-197 514h234l59 -305h4l51 305h231l-178 -492v-67c0 -115 -60 -173 -185 -173h-125z" />
    <glyph glyph-name="z" unicode="z" horiz-adv-x="487" 
d="M26 0v124l179 256h-175v151h445v-80l-205 -301h203v-150h-447z" />
    <glyph glyph-name="bracketleft" unicode="[" horiz-adv-x="391" 
d="M340 -125h-286v845h286v-150h-93v-547h93v-148z" />
    <glyph glyph-name="bracketright" unicode="]" horiz-adv-x="391" 
d="M337 -125h-286v148h93v547h-93v150h286v-845z" />
    <glyph glyph-name="parenleft" unicode="(" horiz-adv-x="390" 
d="M213 741l146 -71c-82 -127 -120 -223 -120 -361c0 -124 38 -216 135 -360l-133 -88c-117 107 -201 268 -201 438c0 169 62 316 173 442z" />
    <glyph glyph-name="parenright" unicode=")" horiz-adv-x="390" 
d="M31 670l146 71c111 -126 173 -273 173 -442c0 -170 -84 -331 -201 -438l-133 88c97 144 135 236 135 360c0 138 -38 234 -120 361z" />
    <glyph glyph-name="braceleft" unicode="{" horiz-adv-x="451" 
d="M410 580h-30c-51 0 -55 -21 -55 -116c0 -42 -1 -72 -5 -95c-6 -42 -33 -65 -73 -81c72 -19 78 -57 78 -146c0 -106 4 -127 70 -127h15v-140h-46c-172 0 -227 32 -227 184v101c0 45 -14 58 -50 58h-52v137h44c51 0 58 20 58 101v73c0 146 63 191 227 191h46v-140z" />
    <glyph glyph-name="braceright" unicode="}" horiz-adv-x="451" 
d="M71 580h-30v140h46c164 0 227 -45 227 -191v-73c0 -81 7 -101 58 -101h44v-137h-52c-36 0 -50 -13 -50 -58v-101c0 -152 -55 -184 -227 -184h-46v140h15c66 0 70 21 70 127c0 89 6 127 78 146c-40 16 -67 39 -73 81c-4 23 -5 53 -5 95c0 95 -4 116 -55 116z" />
    <glyph glyph-name="backslash" unicode="\" horiz-adv-x="435" 
d="M195 739l235 -831h-164l-236 831h165z" />
    <glyph glyph-name="slash" unicode="/" horiz-adv-x="441" 
d="M11 -92l235 831h165l-236 -831h-164z" />
    <glyph glyph-name="brokenbar" unicode="&#xa6;" horiz-adv-x="500" 
d="M338 225v-425h-176v425h176zM338 720v-425h-176v425h176z" />
    <glyph glyph-name="bar" unicode="|" horiz-adv-x="500" 
d="M338 720v-920h-176v920h176z" />
    <glyph glyph-name="asciicircum" unicode="^" horiz-adv-x="728" 
d="M423 693l222 -240l-100 -81l-180 180l-187 -180l-97 84l227 237h115z" />
    <glyph glyph-name="underscore" unicode="_" horiz-adv-x="475" 
d="M0 -241v138h500v-138h-500z" />
    <glyph glyph-name="asciitilde" unicode="~" horiz-adv-x="802" 
d="M677 389l47 -110c-57 -41 -119 -66 -196 -66c-46 0 -90 14 -135 26l-13 3c-39 11 -74 22 -106 22c-43 0 -92 -18 -148 -51l-48 111c58 40 120 65 196 65c85 0 168 -50 254 -50c50 0 96 22 149 50z" />
    <glyph glyph-name="zero" unicode="0" horiz-adv-x="626" 
d="M234 341c0 -113 19 -179 79 -179c57 0 80 67 80 183c0 109 -18 177 -79 177s-80 -68 -80 -181zM31 341c0 233 104 360 287 360c180 0 277 -127 277 -348c0 -246 -102 -365 -286 -365s-278 119 -278 353z" />
    <glyph glyph-name="one" unicode="1" horiz-adv-x="521" 
d="M75 0v155h125v293c-43 -18 -93 -24 -141 -23l-25 135c75 21 157 71 207 130h160v-535h115v-155h-441z" />
    <glyph glyph-name="two" unicode="2" horiz-adv-x="562" 
d="M43 0v121l197 232c47 56 72 84 72 120c0 35 -18 52 -56 52c-50 0 -113 -38 -163 -72l-76 132c74 63 165 116 281 116c132 0 232 -65 232 -201c0 -98 -45 -148 -109 -221l-100 -114h215v-165h-493z" />
    <glyph glyph-name="three" unicode="3" horiz-adv-x="556" 
d="M5 83l69 130c46 -25 110 -57 166 -57c50 0 88 20 88 63c0 44 -33 55 -91 55c-22 0 -52 -3 -69 -6l-5 152c69 4 139 18 139 68c0 36 -21 48 -61 48c-49 0 -94 -19 -136 -43l-72 126c71 46 147 82 251 82c133 0 216 -65 216 -171c0 -84 -54 -139 -136 -167
c97 -11 161 -69 161 -161c0 -147 -119 -214 -268 -214c-87 0 -179 29 -252 95z" />
    <glyph glyph-name="four" unicode="4" horiz-adv-x="633" 
d="M204 291h141v219zM345 0v133h-315v154l262 403h256v-399h63v-158h-63v-133h-203z" />
    <glyph glyph-name="five" unicode="5" horiz-adv-x="557" 
d="M32 249l35 441h417l-11 -177h-259l-9 -92c20 13 58 32 118 32c131 0 204 -80 204 -212c0 -170 -123 -253 -268 -253c-87 0 -189 34 -249 83l60 135c64 -33 119 -47 174 -47c46 0 87 23 87 83c0 48 -22 73 -65 73c-31 0 -56 -13 -75 -26l-4 -40h-155z" />
    <glyph glyph-name="six" unicode="6" horiz-adv-x="591" 
d="M35 328c0 234 100 373 286 373c71 0 146 -20 208 -60l-53 -132c-36 18 -85 28 -126 28c-83 0 -123 -40 -128 -142c33 26 88 51 149 51c113 0 192 -53 192 -208c0 -181 -125 -250 -260 -250c-191 0 -268 126 -268 340zM308 152c44 0 67 25 67 77s-26 71 -67 71
c-32 0 -61 -15 -77 -26c2 -67 17 -122 77 -122z" />
    <glyph glyph-name="seven" unicode="7" horiz-adv-x="514" 
d="M507 560l-230 -560h-229v18l223 495h-252v177h488v-130z" />
    <glyph glyph-name="eight" unicode="8" horiz-adv-x="588" 
d="M206 200c0 -36 25 -61 76 -61c44 0 67 23 67 54c0 42 -50 63 -99 84c-26 -20 -44 -43 -44 -77zM254 518c0 -29 26 -48 74 -70c20 25 30 44 30 69c0 26 -18 46 -53 46c-30 0 -51 -15 -51 -45zM29 179c0 94 57 144 109 172c-49 33 -90 79 -90 152c0 120 98 198 251 198
c152 0 238 -69 238 -175c0 -80 -45 -127 -84 -153c62 -37 110 -81 110 -172c0 -142 -114 -213 -276 -213c-163 0 -258 64 -258 191z" />
    <glyph glyph-name="nine" unicode="9" horiz-adv-x="589" 
d="M553 361c0 -234 -100 -373 -274 -373c-83 0 -160 19 -225 58l53 129c28 -13 89 -32 137 -32c76 0 106 47 117 142c-33 -26 -81 -49 -142 -49c-113 0 -194 60 -194 208c0 183 118 257 260 257c191 0 268 -135 268 -340zM280 537c-42 0 -67 -25 -67 -82
c0 -47 23 -73 67 -73c29 0 65 21 77 33c-2 67 -17 122 -77 122z" />
    <glyph glyph-name="dollar" unicode="$" horiz-adv-x="558" 
d="M213 -88v91c-79 11 -160 58 -209 108l94 119c60 -43 132 -78 183 -78c34 0 53 9 53 33c0 27 -19 39 -126 71c-122 37 -181 102 -181 204c0 125 91 191 187 207v82h154v-84c61 -13 119 -43 162 -79l-84 -119c-50 31 -101 57 -153 57c-40 0 -64 -9 -64 -37
c0 -30 22 -38 129 -74c120 -39 181 -94 181 -200c0 -113 -74 -186 -171 -207v-94h-155z" />
    <glyph glyph-name="Euro" unicode="&#x20ac;" horiz-adv-x="640" 
d="M10 368l8 89h69c26 134 132 244 303 244c85 0 172 -41 238 -99l-79 -115c-45 34 -100 56 -149 56c-62 0 -98 -25 -117 -86h226l-7 -89h-233v-31v-18h229l-7 -89h-209c20 -56 62 -75 119 -75c53 0 113 28 161 59l71 -122c-94 -77 -171 -104 -264 -104
c-159 0 -264 98 -287 242h-83l8 89h68v17c0 11 0 21 1 32h-66z" />
    <glyph glyph-name="cent" unicode="&#xa2;" horiz-adv-x="573" 
d="M493 280l51 -127c-40 -27 -86 -55 -153 -68v-103h-155v100c-116 18 -206 106 -206 266c0 139 79 248 207 269v102h154v-101c105 -21 164 -91 164 -224h-174c-2 49 -19 74 -58 74c-44 0 -73 -37 -73 -113c0 -80 33 -119 92 -119c46 0 94 16 151 44z" />
    <glyph glyph-name="sterling" unicode="&#xa3;" horiz-adv-x="554" 
d="M334 238c0 -27 -15 -59 -32 -78h226v-160h-494v142l71 13c22 19 36 52 36 83c0 21 -7 43 -13 57h-98v127h58c-15 25 -27 48 -27 94c0 119 94 185 231 185c97 0 184 -37 244 -95l-77 -117c-45 31 -79 50 -131 50c-44 0 -62 -23 -62 -54c0 -27 9 -39 20 -63h146v-127h-110
c7 -18 12 -38 12 -57z" />
    <glyph glyph-name="yen" unicode="&#xa5;" horiz-adv-x="620" 
d="M60 296v95h94l-158 299h204l108 -233l105 233h205l-165 -299h99v-95h-150v-64h150v-95h-150v-137h-192v137h-150v95h150v64h-150z" />
    <glyph glyph-name="florin" unicode="&#x192;" horiz-adv-x="496" 
d="M-25 -56h39c29 0 45 17 54 55l63 294h-81l-1 133h110l12 63c21 120 59 201 202 201h103v-149h-62c-33 0 -45 -25 -52 -63l-10 -52h86v-133h-113l-58 -276c-26 -121 -69 -217 -210 -217h-82v144z" />
    <glyph glyph-name="section" unicode="&#xa7;" horiz-adv-x="539" 
d="M47 80l68 97c33 -22 98 -57 142 -57c30 0 38 9 38 21c0 18 -41 27 -89 44c-65 23 -143 60 -143 150c0 62 36 97 70 122c-45 27 -67 71 -67 116c0 106 91 159 213 159c85 0 157 -29 209 -70l-53 -105c-59 28 -108 42 -145 42c-26 0 -41 -7 -41 -23c0 -20 17 -26 90 -53
c126 -45 147 -83 147 -142s-39 -94 -82 -115c60 -34 86 -70 86 -124c0 -104 -108 -154 -207 -154c-80 0 -176 32 -236 92zM290 383l-45 22c-14 -12 -21 -22 -21 -39c0 -12 10 -22 27 -30l42 -20c10 9 21 23 21 40c0 11 -9 20 -24 27z" />
    <glyph glyph-name="copyright" unicode="&#xa9;" horiz-adv-x="805" 
d="M521 295l43 -70c-38 -33 -98 -63 -165 -63c-109 0 -172 85 -172 197c0 115 66 201 182 201c84 0 151 -46 156 -152h-93c-5 37 -21 61 -64 61c-49 0 -76 -35 -76 -109c0 -67 31 -107 81 -107c43 0 77 21 108 42zM402 653c-160 0 -288 -118 -288 -293
c0 -183 123 -293 288 -293c157 0 291 130 291 293c0 173 -115 293 -291 293zM402 720c220 0 360 -141 360 -356c0 -211 -164 -364 -360 -364c-193 0 -360 125 -360 360c0 215 162 360 360 360z" />
    <glyph glyph-name="registered" unicode="&#xae;" horiz-adv-x="423" 
d="M211 687c-79 0 -139 -59 -139 -140c0 -91 57 -141 139 -141c74 0 137 61 137 140c0 86 -57 141 -137 141zM212 733c109 0 187 -73 187 -187c0 -107 -86 -187 -188 -187c-109 0 -188 66 -188 187c0 111 83 187 189 187zM143 639h75c47 0 70 -26 70 -61
c0 -21 -11 -40 -31 -50l41 -69h-55l-31 58c-5 -1 -11 -1 -16 -1h-8v-57h-45v180zM205 603h-17v-50h15c23 0 34 7 34 27c0 14 -10 23 -32 23z" />
    <glyph glyph-name="trademark" unicode="&#x2122;" horiz-adv-x="662" 
d="M629 447h-78l-13 151l-46 -151h-60l-46 150l-13 -150h-80l30 273h91l49 -165l49 165h88zM108 447v198h-82v75h249v-75h-83v-198h-84z" />
    <glyph glyph-name="ordfeminine" unicode="&#xaa;" horiz-adv-x="501" 
d="M288 396v17c-8 2 -18 4 -36 4c-33 0 -59 -9 -59 -36c0 -22 15 -31 42 -31c32 0 53 21 53 46zM436 513v-249h-121l-12 42c-25 -30 -69 -52 -127 -52c-64 0 -126 37 -126 117c0 73 54 128 175 128c20 0 40 -1 63 -5v12c0 38 -19 50 -54 50c-48 0 -86 -14 -126 -31l-36 94
c51 27 114 46 189 46c109 0 175 -44 175 -152z" />
    <glyph glyph-name="ordmasculine" unicode="&#xba;" horiz-adv-x="522" 
d="M201 460c0 -67 25 -88 62 -88c33 0 59 21 59 88c0 66 -26 86 -59 86c-37 0 -62 -20 -62 -86zM44 460c0 141 103 205 219 205c123 0 215 -64 215 -205s-100 -205 -215 -205c-136 0 -219 64 -219 205z" />
    <glyph glyph-name="guillemotleft" unicode="&#xab;" horiz-adv-x="539" 
d="M529 359l-91 -98l91 -92l-106 -101l-163 170v45l160 172zM279 359l-91 -98l91 -92l-106 -101l-163 170v45l160 172z" />
    <glyph glyph-name="guillemotright" unicode="&#xbb;" horiz-adv-x="538" 
d="M350 261l-91 98l109 96l160 -172v-45l-163 -170l-106 101zM101 261l-91 98l109 96l160 -172v-45l-163 -170l-106 101z" />
    <glyph glyph-name="guilsinglleft" unicode="&#x2039;" horiz-adv-x="289" 
d="M279 359l-91 -98l91 -92l-106 -101l-163 170v45l160 172z" />
    <glyph glyph-name="guilsinglright" unicode="&#x203a;" horiz-adv-x="289" 
d="M101 261l-91 98l109 96l160 -172v-45l-163 -170l-106 101z" />
    <glyph glyph-name="quoteleft" unicode="&#x2018;" horiz-adv-x="238" 
d="M212 559c0 -49 -38 -85 -91 -85c-66 0 -101 49 -101 110c0 92 59 153 160 179l24 -66c-50 -17 -68 -36 -76 -68c48 7 84 -23 84 -70z" />
    <glyph glyph-name="quoteright" unicode="&#x2019;" horiz-adv-x="235" 
d="M23 640c0 49 38 85 91 85c66 0 101 -49 101 -110c0 -92 -59 -153 -160 -179l-24 66c50 17 68 36 76 68c-48 -7 -84 23 -84 70z" />
    <glyph glyph-name="quotesinglbase" unicode="&#x201a;" horiz-adv-x="233" 
d="M26 52c0 49 38 85 91 85c66 0 101 -49 101 -110c0 -92 -59 -153 -160 -179l-24 66c50 17 68 36 76 68c-48 -7 -84 23 -84 70z" />
    <glyph glyph-name="quotedblleft" unicode="&#x201c;" horiz-adv-x="453" 
d="M212 559c0 -49 -38 -85 -91 -85c-66 0 -101 49 -101 110c0 92 59 153 160 179l24 -66c-50 -17 -68 -36 -76 -68c48 7 84 -23 84 -70zM427 559c0 -49 -38 -85 -91 -85c-66 0 -101 49 -101 110c0 92 59 153 160 179l24 -66c-50 -17 -68 -36 -76 -68c48 7 84 -23 84 -70z
" />
    <glyph glyph-name="quotedblright" unicode="&#x201d;" horiz-adv-x="449" 
d="M237 640c0 49 38 85 91 85c66 0 101 -49 101 -110c0 -92 -59 -153 -160 -179l-24 66c50 17 68 36 76 68c-48 -7 -84 23 -84 70zM23 640c0 49 38 85 91 85c66 0 101 -49 101 -110c0 -92 -59 -153 -160 -179l-24 66c50 17 68 36 76 68c-48 -7 -84 23 -84 70z" />
    <glyph glyph-name="quotedblbase" unicode="&#x201e;" horiz-adv-x="445" 
d="M238 52c0 49 38 85 91 85c66 0 101 -49 101 -110c0 -92 -59 -153 -160 -179l-24 66c50 17 68 36 76 68c-48 -7 -84 23 -84 70zM26 52c0 49 38 85 91 85c66 0 101 -49 101 -110c0 -92 -59 -153 -160 -179l-24 66c50 17 68 36 76 68c-48 -7 -84 23 -84 70z" />
    <glyph glyph-name="dagger" unicode="&#x2020;" horiz-adv-x="503" 
d="M344 -105h-185v472h-129v164h129v189h185v-189h129v-164h-129v-472z" />
    <glyph glyph-name="daggerdbl" unicode="&#x2021;" horiz-adv-x="504" 
d="M345 -105h-185v187h-130v164h130v121h-130v164h130v189h185v-189h129v-164h-129v-121h129v-164h-129v-187z" />
    <glyph glyph-name="bullet" unicode="&#x2022;" horiz-adv-x="500" 
d="M96 312c0 87 61 154 155 154c97 0 155 -68 155 -154c0 -85 -61 -156 -156 -156c-100 0 -154 75 -154 156z" />
    <glyph glyph-name="ellipsis" unicode="&#x2026;" horiz-adv-x="855" 
d="M317 90c0 62 43 102 109 102c65 0 107 -40 107 -102c0 -59 -40 -102 -107 -102c-69 0 -109 43 -109 102zM35 90c0 62 43 102 109 102c65 0 107 -40 107 -102c0 -59 -40 -102 -107 -102c-69 0 -109 43 -109 102zM604 90c0 62 43 102 109 102c65 0 107 -40 107 -102
c0 -59 -40 -102 -107 -102c-69 0 -109 43 -109 102z" />
    <glyph glyph-name="paragraph" unicode="&#xb6;" horiz-adv-x="564" 
d="M519 720v-720h-118v634h-65v-634h-118v326c-128 11 -193 88 -193 198c0 115 85 196 228 196h266z" />
    <glyph glyph-name="periodcentered" unicode="&#xb7;" horiz-adv-x="334" 
d="M59 323c0 62 43 102 109 102c65 0 107 -40 107 -102c0 -59 -40 -102 -107 -102c-69 0 -109 43 -109 102z" />
    <glyph glyph-name="uni00AD" unicode="&#xad;" horiz-adv-x="320" 
d="M25 202v154h270v-154h-270z" />
    <glyph glyph-name="endash" unicode="&#x2013;" horiz-adv-x="500" 
d="M0 210v122h500v-122h-500z" />
    <glyph glyph-name="emdash" unicode="&#x2014;" horiz-adv-x="1000" 
d="M0 209v121h1000v-121h-1000z" />
    <glyph glyph-name="hyphen.case" horiz-adv-x="320" 
d="M25 264v154h270v-154h-270z" />
    <glyph glyph-name="Agrave" unicode="&#xc0;" horiz-adv-x="733" 
d="M245 720h247l245 -720h-238l-35 113h-206l-36 -113h-226zM296 268h130l-61 241zM300 962l195 -122l-55 -92l-208 92z" />
    <glyph glyph-name="Aacute" unicode="&#xc1;" horiz-adv-x="733" 
d="M245 720h247l245 -720h-238l-35 113h-206l-36 -113h-226zM296 268h130l-61 241zM232 840l195 122l68 -122l-208 -92z" />
    <glyph glyph-name="Acircumflex" unicode="&#xc2;" horiz-adv-x="733" 
d="M245 720h247l245 -720h-238l-35 113h-206l-36 -113h-226zM296 268h130l-61 241zM319 922h99l115 -104l-77 -65l-88 55l-89 -55l-76 66z" />
    <glyph glyph-name="Atilde" unicode="&#xc3;" horiz-adv-x="733" 
d="M245 720h247l245 -720h-238l-35 113h-206l-36 -113h-226zM296 268h130l-61 241zM458 931l95 -42c-15 -69 -51 -121 -111 -121c-58 0 -102 29 -129 29c-17 0 -28 -6 -42 -35l-94 39c16 65 53 129 109 129c54 0 98 -29 127 -29c18 0 32 4 45 30z" />
    <glyph glyph-name="Adieresis" unicode="&#xc4;" horiz-adv-x="733" 
d="M245 720h247l245 -720h-238l-35 113h-206l-36 -113h-226zM296 268h130l-61 241zM389 846c0 47 35 83 96 83c67 0 96 -36 96 -83s-38 -80 -95 -80c-63 0 -97 31 -97 80zM155 846c0 47 36 83 96 83c67 0 96 -36 96 -83s-37 -80 -95 -80c-63 0 -97 31 -97 80z" />
    <glyph glyph-name="Aring" unicode="&#xc5;" horiz-adv-x="733" 
d="M235 765c0 81 60 126 136 126c74 0 133 -41 133 -120c0 -20 -5 -38 -12 -53l245 -718h-238l-35 113h-206l-36 -113h-226l248 716c-6 14 -9 31 -9 49zM296 268h130l-61 241zM328 771c0 -28 15 -42 43 -42c23 0 41 16 41 42c0 27 -17 40 -41 40c-28 0 -43 -16 -43 -40z" />
    <glyph glyph-name="AE" unicode="&#xc6;" horiz-adv-x="1014" 
d="M464 0v153h-161l-66 -153h-241l329 720h655v-189h-299v-91h272v-165h-272v-90h302v-185h-519zM350 312h114v227h-17z" />
    <glyph glyph-name="Ccedilla" unicode="&#xc7;" horiz-adv-x="694" 
d="M271 -224l13 73c19 -5 44 -10 67 -10c28 0 41 6 41 25c0 22 -19 28 -60 28h-22l18 97c-197 15 -300 162 -300 367c0 221 121 377 353 377c155 0 289 -89 295 -292h-211c-5 66 -31 101 -93 101c-70 0 -117 -48 -117 -185c0 -122 53 -173 135 -173c75 0 138 33 191 70
l89 -147c-79 -69 -169 -109 -269 -117l-6 -38c57 -5 100 -27 100 -86c0 -65 -41 -108 -123 -108c-43 0 -81 9 -101 18z" />
    <glyph glyph-name="Egrave" unicode="&#xc8;" horiz-adv-x="595" 
d="M45 0v720h516v-189h-299v-91h272v-165h-272v-90h302v-185h-519zM229 963l195 -122l-55 -92l-208 92z" />
    <glyph glyph-name="Eacute" unicode="&#xc9;" horiz-adv-x="595" 
d="M45 0v720h516v-189h-299v-91h272v-165h-272v-90h302v-185h-519zM180 841l195 122l68 -122l-208 -92z" />
    <glyph glyph-name="Ecircumflex" unicode="&#xca;" horiz-adv-x="595" 
d="M45 0v720h516v-189h-299v-91h272v-165h-272v-90h302v-185h-519zM257 923h99l115 -104l-77 -65l-88 55l-89 -55l-76 66z" />
    <glyph glyph-name="Edieresis" unicode="&#xcb;" horiz-adv-x="595" 
d="M45 0v720h516v-189h-299v-91h272v-165h-272v-90h302v-185h-519zM320 847c0 47 35 83 96 83c67 0 96 -36 96 -83s-38 -80 -95 -80c-63 0 -97 31 -97 80zM86 847c0 47 36 83 96 83c67 0 96 -36 96 -83s-37 -80 -95 -80c-63 0 -97 31 -97 80z" />
    <glyph glyph-name="Igrave" unicode="&#xcc;" horiz-adv-x="307" 
d="M45 0v720h217v-720h-217zM87 962l195 -122l-55 -92l-208 92z" />
    <glyph glyph-name="Iacute" unicode="&#xcd;" horiz-adv-x="307" 
d="M45 0v720h217v-720h-217zM19 840l195 122l68 -122l-208 -92z" />
    <glyph glyph-name="Icircumflex" unicode="&#xce;" horiz-adv-x="307" 
d="M45 0v720h217v-720h-217zM104 922h99l115 -104l-77 -65l-88 55l-89 -55l-76 66z" />
    <glyph glyph-name="Idieresis" unicode="&#xcf;" horiz-adv-x="307" 
d="M45 0v720h217v-720h-217zM176 846c0 47 35 83 96 83c67 0 96 -36 96 -83s-38 -80 -95 -80c-63 0 -97 31 -97 80zM-58 846c0 47 36 83 96 83c67 0 96 -36 96 -83s-37 -80 -95 -80c-63 0 -97 31 -97 80z" />
    <glyph glyph-name="Eth" unicode="&#xd0;" horiz-adv-x="771" 
d="M20 291v132h76v297h288c243 0 359 -153 359 -363c0 -241 -123 -357 -393 -357h-254v291h-76zM379 535h-66v-112h94v-132h-94v-106h66c92 0 136 56 136 172c0 117 -44 178 -136 178z" />
    <glyph glyph-name="Ntilde" unicode="&#xd1;" horiz-adv-x="727" 
d="M45 0v720h186l238 -370v370h213v-720h-186l-238 350v-350h-213zM464 931l95 -42c-15 -69 -51 -121 -111 -121c-58 0 -102 29 -129 29c-17 0 -28 -6 -42 -35l-94 39c16 65 53 129 109 129c54 0 98 -29 127 -29c18 0 32 4 45 30z" />
    <glyph glyph-name="Ograve" unicode="&#xd2;" horiz-adv-x="791" 
d="M255 360c0 -98 43 -176 141 -176s140 78 140 176c0 94 -42 177 -140 177s-141 -83 -141 -177zM28 360c0 221 136 372 368 372c231 0 368 -151 368 -372c0 -225 -137 -372 -371 -372c-236 0 -365 147 -365 372zM333 962l195 -122l-55 -92l-208 92z" />
    <glyph glyph-name="Oacute" unicode="&#xd3;" horiz-adv-x="791" 
d="M255 360c0 -98 43 -176 141 -176s140 78 140 176c0 94 -42 177 -140 177s-141 -83 -141 -177zM28 360c0 221 136 372 368 372c231 0 368 -151 368 -372c0 -225 -137 -372 -371 -372c-236 0 -365 147 -365 372zM265 840l195 122l68 -122l-208 -92z" />
    <glyph glyph-name="Ocircumflex" unicode="&#xd4;" horiz-adv-x="791" 
d="M255 360c0 -98 43 -176 141 -176s140 78 140 176c0 94 -42 177 -140 177s-141 -83 -141 -177zM28 360c0 221 136 372 368 372c231 0 368 -151 368 -372c0 -225 -137 -372 -371 -372c-236 0 -365 147 -365 372zM350 922h99l115 -104l-77 -65l-88 55l-89 -55l-76 66z" />
    <glyph glyph-name="Otilde" unicode="&#xd5;" horiz-adv-x="791" 
d="M255 360c0 -98 43 -176 141 -176s140 78 140 176c0 94 -42 177 -140 177s-141 -83 -141 -177zM28 360c0 221 136 372 368 372c231 0 368 -151 368 -372c0 -225 -137 -372 -371 -372c-236 0 -365 147 -365 372zM497 931l95 -42c-15 -69 -51 -121 -111 -121
c-58 0 -102 29 -129 29c-17 0 -28 -6 -42 -35l-94 39c16 65 53 129 109 129c54 0 98 -29 127 -29c18 0 32 4 45 30z" />
    <glyph glyph-name="Odieresis" unicode="&#xd6;" horiz-adv-x="791" 
d="M255 360c0 -98 43 -176 141 -176s140 78 140 176c0 94 -42 177 -140 177s-141 -83 -141 -177zM28 360c0 221 136 372 368 372c231 0 368 -151 368 -372c0 -225 -137 -372 -371 -372c-236 0 -365 147 -365 372zM422 846c0 47 35 83 96 83c67 0 96 -36 96 -83
s-38 -80 -95 -80c-63 0 -97 31 -97 80zM188 846c0 47 36 83 96 83c67 0 96 -36 96 -83s-37 -80 -95 -80c-63 0 -97 31 -97 80z" />
    <glyph glyph-name="Oslash" unicode="&#xd8;" horiz-adv-x="791" 
d="M28 360c0 221 136 372 368 372c15 0 31 -1 46 -2l21 61h168l-37 -106c109 -61 170 -178 170 -325c0 -225 -137 -372 -371 -372c-5 0 -10 1 -14 1l-21 -60h-167l31 91c-127 55 -194 177 -194 340zM255 360c0 -98 43 -176 141 -176s140 78 140 176c0 94 -42 177 -140 177
s-141 -83 -141 -177z" />
    <glyph glyph-name="Ugrave" unicode="&#xd9;" horiz-adv-x="701" 
d="M40 720h217v-439c0 -72 38 -102 93 -102c58 0 95 29 95 102v439h216v-440c0 -197 -117 -292 -311 -292c-200 0 -310 95 -310 292v440zM287 962l195 -122l-55 -92l-208 92z" />
    <glyph glyph-name="Uacute" unicode="&#xda;" horiz-adv-x="701" 
d="M40 720h217v-439c0 -72 38 -102 93 -102c58 0 95 29 95 102v439h216v-440c0 -197 -117 -292 -311 -292c-200 0 -310 95 -310 292v440zM223 840l195 122l68 -122l-208 -92z" />
    <glyph glyph-name="Ucircumflex" unicode="&#xdb;" horiz-adv-x="701" 
d="M40 720h217v-439c0 -72 38 -102 93 -102c58 0 95 29 95 102v439h216v-440c0 -197 -117 -292 -311 -292c-200 0 -310 95 -310 292v440zM305 922h99l115 -104l-77 -65l-88 55l-89 -55l-76 66z" />
    <glyph glyph-name="Udieresis" unicode="&#xdc;" horiz-adv-x="701" 
d="M40 720h217v-439c0 -72 38 -102 93 -102c58 0 95 29 95 102v439h216v-440c0 -197 -117 -292 -311 -292c-200 0 -310 95 -310 292v440zM376 846c0 47 35 83 96 83c67 0 96 -36 96 -83s-38 -80 -95 -80c-63 0 -97 31 -97 80zM142 846c0 47 36 83 96 83c67 0 96 -36 96 -83
s-37 -80 -95 -80c-63 0 -97 31 -97 80z" />
    <glyph glyph-name="Yacute" unicode="&#xdd;" horiz-adv-x="711" 
d="M242 0v251l-246 469h236l121 -275l120 275h242l-257 -467v-253h-216zM246 840l195 122l68 -122l-208 -92z" />
    <glyph glyph-name="Thorn" unicode="&#xde;" horiz-adv-x="647" 
d="M41 0v720h217v-85h88c162 0 272 -87 272 -264c0 -157 -98 -251 -279 -251h-81v-120h-217zM328 445h-70v-157h68c52 0 78 32 78 83c0 49 -24 74 -76 74z" />
    <glyph glyph-name="germandbls" unicode="&#xdf;" horiz-adv-x="681" 
d="M81 0v384h-63v118l63 26v9c0 152 151 183 282 183c145 0 246 -60 246 -195c0 -75 -45 -133 -107 -155c98 -23 159 -84 159 -179c0 -133 -97 -203 -204 -203c-52 0 -108 16 -148 46l38 135c15 -8 34 -12 52 -12c35 0 57 19 57 56c0 50 -44 70 -127 72v153
c51 2 82 26 82 72c0 44 -22 62 -61 62c-40 0 -62 -23 -62 -78v-494h-207z" />
    <glyph glyph-name="agrave" unicode="&#xe0;" horiz-adv-x="564" 
d="M320 164v40c-9 3 -22 5 -39 5c-39 0 -67 -12 -67 -48c0 -32 19 -45 49 -45c32 0 57 23 57 48zM528 334v-334h-168l-18 56c-31 -43 -92 -68 -153 -68c-100 0 -170 48 -170 157c0 101 77 161 238 161c26 0 44 -1 63 -3v33c0 41 -25 57 -66 57c-61 0 -117 -13 -171 -34
l-40 129c68 31 155 55 232 55c168 0 253 -61 253 -209zM227 816l180 -158l-79 -93l-194 139z" />
    <glyph glyph-name="aacute" unicode="&#xe1;" horiz-adv-x="564" 
d="M320 164v40c-9 3 -22 5 -39 5c-39 0 -67 -12 -67 -48c0 -32 19 -45 49 -45c32 0 57 23 57 48zM528 334v-334h-168l-18 56c-31 -43 -92 -68 -153 -68c-100 0 -170 48 -170 157c0 101 77 161 238 161c26 0 44 -1 63 -3v33c0 41 -25 57 -66 57c-61 0 -117 -13 -171 -34
l-40 129c68 31 155 55 232 55c168 0 253 -61 253 -209zM148 656l178 160l93 -112l-194 -139z" />
    <glyph glyph-name="acircumflex" unicode="&#xe2;" horiz-adv-x="564" 
d="M320 164v40c-9 3 -22 5 -39 5c-39 0 -67 -12 -67 -48c0 -32 19 -45 49 -45c32 0 57 23 57 48zM528 334v-334h-168l-18 56c-31 -43 -92 -68 -153 -68c-100 0 -170 48 -170 157c0 101 77 161 238 161c26 0 44 -1 63 -3v33c0 41 -25 57 -66 57c-61 0 -117 -13 -171 -34
l-40 129c68 31 155 55 232 55c168 0 253 -61 253 -209zM227 780h102l131 -149l-88 -64l-94 77l-94 -77l-90 66z" />
    <glyph glyph-name="atilde" unicode="&#xe3;" horiz-adv-x="564" 
d="M320 164v40c-9 3 -22 5 -39 5c-39 0 -67 -12 -67 -48c0 -32 19 -45 49 -45c32 0 57 23 57 48zM528 334v-334h-168l-18 56c-31 -43 -92 -68 -153 -68c-100 0 -170 48 -170 157c0 101 77 161 238 161c26 0 44 -1 63 -3v33c0 41 -25 57 -66 57c-61 0 -117 -13 -171 -34
l-40 129c68 31 155 55 232 55c168 0 253 -61 253 -209zM376 754l95 -42c-15 -69 -51 -121 -111 -121c-58 0 -102 29 -129 29c-17 0 -28 -6 -42 -35l-94 39c16 65 53 129 109 129c54 0 98 -29 127 -29c18 0 32 4 45 30z" />
    <glyph glyph-name="adieresis" unicode="&#xe4;" horiz-adv-x="564" 
d="M320 164v40c-9 3 -22 5 -39 5c-39 0 -67 -12 -67 -48c0 -32 19 -45 49 -45c32 0 57 23 57 48zM528 334v-334h-168l-18 56c-31 -43 -92 -68 -153 -68c-100 0 -170 48 -170 157c0 101 77 161 238 161c26 0 44 -1 63 -3v33c0 41 -25 57 -66 57c-61 0 -117 -13 -171 -34
l-40 129c68 31 155 55 232 55c168 0 253 -61 253 -209zM302 666c0 47 35 83 96 83c67 0 96 -36 96 -83s-38 -80 -95 -80c-63 0 -97 31 -97 80zM68 666c0 47 36 83 96 83c67 0 96 -36 96 -83s-37 -80 -95 -80c-63 0 -97 31 -97 80z" />
    <glyph glyph-name="aring" unicode="&#xe5;" horiz-adv-x="564" 
d="M320 164v40c-9 3 -22 5 -39 5c-39 0 -67 -12 -67 -48c0 -32 19 -45 49 -45c32 0 57 23 57 48zM528 334v-334h-168l-18 56c-31 -43 -92 -68 -153 -68c-100 0 -170 48 -170 157c0 101 77 161 238 161c26 0 44 -1 63 -3v33c0 41 -25 57 -66 57c-61 0 -117 -13 -171 -34
l-40 129c68 31 155 55 232 55c168 0 253 -61 253 -209zM249 682c0 -24 13 -36 37 -36c20 0 35 14 35 36c0 23 -14 35 -35 35c-24 0 -37 -14 -37 -35zM169 677c0 70 51 109 117 109c64 0 115 -36 115 -104c0 -66 -51 -106 -115 -106c-71 0 -117 35 -117 101z" />
    <glyph glyph-name="ae" unicode="&#xe6;" horiz-adv-x="873" 
d="M786 169l38 -124c-64 -34 -138 -57 -231 -57c-75 0 -141 23 -191 61c-45 -36 -102 -61 -185 -61c-115 0 -198 48 -198 164c0 110 83 167 214 167c30 0 63 -2 86 -6v24c0 41 -25 56 -63 56c-61 0 -120 -13 -174 -34l-40 129c68 31 149 55 226 55c65 0 128 -15 167 -61
c44 41 108 61 177 61c147 0 241 -81 241 -247c0 -19 -1 -62 -5 -77h-311c2 -42 22 -86 86 -86c45 0 94 13 163 36zM269 114c30 0 55 16 67 29c-8 25 -13 49 -16 70c-11 3 -26 5 -38 5c-39 0 -63 -16 -63 -52c0 -32 16 -52 50 -52zM537 325h119c-1 47 -15 80 -56 80
c-46 0 -63 -42 -63 -80z" />
    <glyph glyph-name="ccedilla" unicode="&#xe7;" horiz-adv-x="564" 
d="M200 -216l13 73c19 -5 44 -10 67 -10c28 0 41 6 41 25c0 22 -19 28 -60 28h-22l17 90c-133 14 -234 103 -234 271c0 161 101 282 288 282c150 0 237 -72 237 -229h-174c-2 49 -18 74 -57 74c-44 0 -74 -37 -74 -120c0 -80 33 -122 92 -122c46 0 94 16 151 44l51 -127
c-48 -33 -121 -66 -207 -73l-5 -30c57 -5 100 -27 100 -86c0 -65 -41 -108 -123 -108c-43 0 -81 9 -101 18z" />
    <glyph glyph-name="egrave" unicode="&#xe8;" horiz-adv-x="578" 
d="M491 169l38 -124c-64 -34 -138 -57 -231 -57c-176 0 -276 105 -276 272c0 172 108 283 281 283c161 0 255 -81 255 -247c0 -19 -1 -62 -5 -77h-311c2 -42 26 -82 93 -82c42 0 92 12 156 32zM242 325h119c-1 47 -15 80 -56 80c-46 0 -63 -42 -63 -80zM239 816l180 -158
l-79 -93l-194 139z" />
    <glyph glyph-name="eacute" unicode="&#xe9;" horiz-adv-x="578" 
d="M491 169l38 -124c-64 -34 -138 -57 -231 -57c-176 0 -276 105 -276 272c0 172 108 283 281 283c161 0 255 -81 255 -247c0 -19 -1 -62 -5 -77h-311c2 -42 26 -82 93 -82c42 0 92 12 156 32zM242 325h119c-1 47 -15 80 -56 80c-46 0 -63 -42 -63 -80zM172 656l178 160
l93 -112l-194 -139z" />
    <glyph glyph-name="ecircumflex" unicode="&#xea;" horiz-adv-x="578" 
d="M491 169l38 -124c-64 -34 -138 -57 -231 -57c-176 0 -276 105 -276 272c0 172 108 283 281 283c161 0 255 -81 255 -247c0 -19 -1 -62 -5 -77h-311c2 -42 26 -82 93 -82c42 0 92 12 156 32zM242 325h119c-1 47 -15 80 -56 80c-46 0 -63 -42 -63 -80zM249 780h102
l131 -149l-88 -64l-94 77l-94 -77l-90 66z" />
    <glyph glyph-name="edieresis" unicode="&#xeb;" horiz-adv-x="578" 
d="M491 169l38 -124c-64 -34 -138 -57 -231 -57c-176 0 -276 105 -276 272c0 172 108 283 281 283c161 0 255 -81 255 -247c0 -19 -1 -62 -5 -77h-311c2 -42 26 -82 93 -82c42 0 92 12 156 32zM242 325h119c-1 47 -15 80 -56 80c-46 0 -63 -42 -63 -80zM324 666
c0 47 35 83 96 83c67 0 96 -36 96 -83s-38 -80 -95 -80c-63 0 -97 31 -97 80zM90 666c0 47 36 83 96 83c67 0 96 -36 96 -83s-37 -80 -95 -80c-63 0 -97 31 -97 80z" />
    <glyph glyph-name="igrave" unicode="&#xec;" horiz-adv-x="293" 
d="M251 531v-531h-208v531h208zM96 816l180 -158l-79 -93l-194 139z" />
    <glyph glyph-name="iacute" unicode="&#xed;" horiz-adv-x="293" 
d="M251 531v-531h-208v531h208zM6 656l178 160l93 -112l-194 -139z" />
    <glyph glyph-name="icircumflex" unicode="&#xee;" horiz-adv-x="293" 
d="M251 531v-531h-208v531h208zM97 780h102l131 -149l-88 -64l-94 77l-94 -77l-90 66z" />
    <glyph glyph-name="idieresis" unicode="&#xef;" horiz-adv-x="293" 
d="M251 531v-531h-208v531h208zM172 666c0 47 35 83 96 83c67 0 96 -36 96 -83s-38 -80 -95 -80c-63 0 -97 31 -97 80zM-62 666c0 47 36 83 96 83c67 0 96 -36 96 -83s-37 -80 -95 -80c-63 0 -97 31 -97 80z" />
    <glyph glyph-name="eth" unicode="&#xf0;" horiz-adv-x="576" 
d="M550 309c0 -202 -88 -321 -272 -321c-132 0 -256 65 -256 245c0 136 84 221 200 221c57 0 105 -21 140 -54c-24 113 -132 159 -260 178l47 147c76 -5 140 -21 192 -45l83 69l100 -113l-62 -50c63 -74 88 -165 88 -277zM282 152c58 0 79 45 75 127c-16 19 -47 37 -77 37
c-43 0 -71 -26 -71 -79c0 -54 28 -85 73 -85z" />
    <glyph glyph-name="ntilde" unicode="&#xf1;" horiz-adv-x="597" 
d="M41 531h170l19 -55c32 33 90 67 161 67c112 0 170 -62 170 -178v-365h-208v313c0 52 -12 66 -44 66c-25 0 -48 -16 -60 -29v-350h-208v531zM407 754l95 -42c-15 -69 -51 -121 -111 -121c-58 0 -102 29 -129 29c-17 0 -28 -6 -42 -35l-94 39c16 65 53 129 109 129
c54 0 98 -29 127 -29c18 0 32 4 45 30z" />
    <glyph glyph-name="ograve" unicode="&#xf2;" horiz-adv-x="630" 
d="M242 266c0 -85 27 -119 74 -119c43 0 72 34 72 119s-28 120 -72 120c-47 0 -74 -36 -74 -120zM22 266c0 193 137 277 296 277c171 0 290 -83 290 -277c0 -190 -135 -278 -302 -278c-162 0 -284 88 -284 278zM265 816l180 -158l-79 -93l-194 139z" />
    <glyph glyph-name="oacute" unicode="&#xf3;" horiz-adv-x="630" 
d="M242 266c0 -85 27 -119 74 -119c43 0 72 34 72 119s-28 120 -72 120c-47 0 -74 -36 -74 -120zM22 266c0 193 137 277 296 277c171 0 290 -83 290 -277c0 -190 -135 -278 -302 -278c-162 0 -284 88 -284 278zM191 656l178 160l93 -112l-194 -139z" />
    <glyph glyph-name="ocircumflex" unicode="&#xf4;" horiz-adv-x="630" 
d="M242 266c0 -85 27 -119 74 -119c43 0 72 34 72 119s-28 120 -72 120c-47 0 -74 -36 -74 -120zM22 266c0 193 137 277 296 277c171 0 290 -83 290 -277c0 -190 -135 -278 -302 -278c-162 0 -284 88 -284 278zM263 780h102l131 -149l-88 -64l-94 77l-94 -77l-90 66z" />
    <glyph glyph-name="otilde" unicode="&#xf5;" horiz-adv-x="630" 
d="M242 266c0 -85 27 -119 74 -119c43 0 72 34 72 119s-28 120 -72 120c-47 0 -74 -36 -74 -120zM22 266c0 193 137 277 296 277c171 0 290 -83 290 -277c0 -190 -135 -278 -302 -278c-162 0 -284 88 -284 278zM413 754l95 -42c-15 -69 -51 -121 -111 -121
c-58 0 -102 29 -129 29c-17 0 -28 -6 -42 -35l-94 39c16 65 53 129 109 129c54 0 98 -29 127 -29c18 0 32 4 45 30z" />
    <glyph glyph-name="odieresis" unicode="&#xf6;" horiz-adv-x="630" 
d="M242 266c0 -85 27 -119 74 -119c43 0 72 34 72 119s-28 120 -72 120c-47 0 -74 -36 -74 -120zM22 266c0 193 137 277 296 277c171 0 290 -83 290 -277c0 -190 -135 -278 -302 -278c-162 0 -284 88 -284 278zM338 666c0 47 35 83 96 83c67 0 96 -36 96 -83
s-38 -80 -95 -80c-63 0 -97 31 -97 80zM104 666c0 47 36 83 96 83c67 0 96 -36 96 -83s-37 -80 -95 -80c-63 0 -97 31 -97 80z" />
    <glyph glyph-name="oslash" unicode="&#xf8;" horiz-adv-x="630" 
d="M514 596l-33 -88c79 -41 127 -119 127 -242c0 -186 -130 -274 -292 -278l-23 -63h-156l32 88c-89 39 -147 121 -147 253c0 193 137 277 296 277c6 0 13 -1 19 -1l20 54h157zM242 266c0 -85 27 -119 74 -119c43 0 72 34 72 119s-28 120 -72 120c-47 0 -74 -36 -74 -120z
" />
    <glyph glyph-name="ugrave" unicode="&#xf9;" horiz-adv-x="598" 
d="M557 0h-165l-26 60c-33 -44 -84 -72 -155 -72c-115 0 -175 66 -175 176v367h209v-326c0 -38 12 -57 44 -57c25 0 50 14 61 27v356h207v-531zM247 816l180 -158l-79 -93l-194 139z" />
    <glyph glyph-name="uacute" unicode="&#xfa;" horiz-adv-x="598" 
d="M557 0h-165l-26 60c-33 -44 -84 -72 -155 -72c-115 0 -175 66 -175 176v367h209v-326c0 -38 12 -57 44 -57c25 0 50 14 61 27v356h207v-531zM175 656l178 160l93 -112l-194 -139z" />
    <glyph glyph-name="ucircumflex" unicode="&#xfb;" horiz-adv-x="598" 
d="M557 0h-165l-26 60c-33 -44 -84 -72 -155 -72c-115 0 -175 66 -175 176v367h209v-326c0 -38 12 -57 44 -57c25 0 50 14 61 27v356h207v-531zM247 780h102l131 -149l-88 -64l-94 77l-94 -77l-90 66z" />
    <glyph glyph-name="udieresis" unicode="&#xfc;" horiz-adv-x="598" 
d="M557 0h-165l-26 60c-33 -44 -84 -72 -155 -72c-115 0 -175 66 -175 176v367h209v-326c0 -38 12 -57 44 -57c25 0 50 14 61 27v356h207v-531zM322 666c0 47 35 83 96 83c67 0 96 -36 96 -83s-38 -80 -95 -80c-63 0 -97 31 -97 80zM88 666c0 47 36 83 96 83
c67 0 96 -36 96 -83s-37 -80 -95 -80c-63 0 -97 31 -97 80z" />
    <glyph glyph-name="yacute" unicode="&#xfd;" horiz-adv-x="562" 
d="M360 531h210l-185 -529c-54 -153 -105 -211 -239 -211c-51 0 -91 7 -117 13l19 148c17 -2 47 -5 73 -5c32 0 51 12 61 45l4 13l-183 526h211l72 -328h4zM160 656l178 160l93 -112l-194 -139z" />
    <glyph glyph-name="thorn" unicode="&#xfe;" horiz-adv-x="631" 
d="M249 353v-183c15 -14 37 -27 64 -27c47 0 74 37 74 119c0 84 -23 124 -70 124c-26 0 -49 -13 -68 -33zM249 -200h-208v920h203v-242c37 36 94 65 162 65c104 0 201 -75 201 -272c0 -183 -77 -283 -222 -283c-67 0 -111 27 -136 46v-234z" />
    <glyph glyph-name="ydieresis" unicode="&#xff;" horiz-adv-x="562" 
d="M360 531h210l-185 -529c-54 -153 -105 -211 -239 -211c-51 0 -91 7 -117 13l19 148c17 -2 47 -5 73 -5c32 0 51 12 61 45l4 13l-183 526h211l72 -328h4zM302 666c0 47 35 83 96 83c67 0 96 -36 96 -83s-38 -80 -95 -80c-63 0 -97 31 -97 80zM68 666c0 47 36 83 96 83
c67 0 96 -36 96 -83s-37 -80 -95 -80c-63 0 -97 31 -97 80z" />
    <glyph glyph-name="Amacron" unicode="&#x100;" horiz-adv-x="733" 
d="M245 720h247l245 -720h-238l-35 113h-206l-36 -113h-226zM296 268h130l-61 241zM215 772v124h295v-124h-295z" />
    <glyph glyph-name="amacron" unicode="&#x101;" horiz-adv-x="564" 
d="M320 164v40c-9 3 -22 5 -39 5c-39 0 -67 -12 -67 -48c0 -32 19 -45 49 -45c32 0 57 23 57 48zM528 334v-334h-168l-18 56c-31 -43 -92 -68 -153 -68c-100 0 -170 48 -170 157c0 101 77 161 238 161c26 0 44 -1 63 -3v33c0 41 -25 57 -66 57c-61 0 -117 -13 -171 -34
l-40 129c68 31 155 55 232 55c168 0 253 -61 253 -209zM129 592v124h295v-124h-295z" />
    <glyph glyph-name="Abreve" unicode="&#x102;" horiz-adv-x="733" 
d="M245 720h247l245 -720h-238l-35 113h-206l-36 -113h-226zM296 268h130l-61 241zM363 859c43 0 54 18 61 56l116 -16c-8 -84 -65 -137 -177 -137c-114 0 -169 47 -177 136l116 17c7 -39 22 -56 61 -56z" />
    <glyph glyph-name="abreve" unicode="&#x103;" horiz-adv-x="564" 
d="M320 164v40c-9 3 -22 5 -39 5c-39 0 -67 -12 -67 -48c0 -32 19 -45 49 -45c32 0 57 23 57 48zM528 334v-334h-168l-18 56c-31 -43 -92 -68 -153 -68c-100 0 -170 48 -170 157c0 101 77 161 238 161c26 0 44 -1 63 -3v33c0 41 -25 57 -66 57c-61 0 -117 -13 -171 -34
l-40 129c68 31 155 55 232 55c168 0 253 -61 253 -209zM277 684c43 0 55 22 61 63l113 -16c-9 -90 -62 -144 -174 -144c-114 0 -164 49 -177 144l116 17c7 -43 22 -64 61 -64z" />
    <glyph glyph-name="Aogonek" unicode="&#x104;" horiz-adv-x="733" 
d="M246 720h247l245 -720h-59c-39 -39 -66 -78 -66 -108c0 -19 9 -28 26 -28c15 0 29 3 50 10l23 -83c-28 -15 -78 -33 -128 -33c-84 0 -111 45 -111 95c0 54 36 102 86 147h-59l-35 113h-206l-36 -113h-226zM297 268h130l-61 241z" />
    <glyph glyph-name="aogonek" unicode="&#x105;" horiz-adv-x="564" 
d="M528 334v-334c-56 -37 -89 -78 -89 -108c0 -19 9 -28 26 -28c15 0 29 3 50 10l23 -83c-28 -15 -78 -33 -128 -33c-84 0 -111 45 -111 95c0 54 36 102 86 147h-25l-18 56c-31 -43 -92 -68 -153 -68c-100 0 -170 48 -170 157c0 101 77 161 238 161c26 0 44 -1 63 -3v33
c0 41 -25 57 -66 57c-61 0 -117 -13 -171 -34l-40 129c68 31 155 55 232 55c168 0 253 -61 253 -209zM320 164v40c-9 3 -22 5 -39 5c-39 0 -67 -12 -67 -48c0 -32 19 -45 49 -45c32 0 57 23 57 48z" />
    <glyph glyph-name="Cacute" unicode="&#x106;" horiz-adv-x="694" 
d="M581 254l89 -147c-89 -78 -192 -119 -307 -119c-220 0 -335 152 -335 368c0 221 121 377 353 377c155 0 289 -89 295 -292h-211c-5 66 -31 101 -93 101c-70 0 -117 -48 -117 -185c0 -122 53 -173 135 -173c75 0 138 33 191 70zM240 840l195 122l68 -122l-208 -92z" />
    <glyph glyph-name="cacute" unicode="&#x107;" horiz-adv-x="564" 
d="M485 190l51 -127c-54 -37 -140 -75 -241 -75c-151 0 -273 89 -273 273c0 161 101 282 288 282c150 0 237 -72 237 -229h-174c-2 49 -18 74 -57 74c-44 0 -74 -37 -74 -120c0 -80 33 -122 92 -122c46 0 94 16 151 44zM175 656l178 160l93 -112l-194 -139z" />
    <glyph glyph-name="Ccircumflex" unicode="&#x108;" horiz-adv-x="694" 
d="M581 254l89 -147c-89 -78 -192 -119 -307 -119c-220 0 -335 152 -335 368c0 221 121 377 353 377c155 0 289 -89 295 -292h-211c-5 66 -31 101 -93 101c-70 0 -117 -48 -117 -185c0 -122 53 -173 135 -173c75 0 138 33 191 70zM326 922h99l115 -104l-77 -65l-88 55
l-89 -55l-76 66z" />
    <glyph glyph-name="ccircumflex" unicode="&#x109;" horiz-adv-x="564" 
d="M485 190l51 -127c-54 -37 -140 -75 -241 -75c-151 0 -273 89 -273 273c0 161 101 282 288 282c150 0 237 -72 237 -229h-174c-2 49 -18 74 -57 74c-44 0 -74 -37 -74 -120c0 -80 33 -122 92 -122c46 0 94 16 151 44zM248 780h102l131 -149l-88 -64l-94 77l-94 -77l-90 66
z" />
    <glyph glyph-name="Cdotaccent" unicode="&#x10a;" horiz-adv-x="694" 
d="M581 254l89 -147c-89 -78 -192 -119 -307 -119c-220 0 -335 152 -335 368c0 221 121 377 353 377c155 0 289 -89 295 -292h-211c-5 66 -31 101 -93 101c-70 0 -117 -48 -117 -185c0 -122 53 -173 135 -173c75 0 138 33 191 70zM257 844c0 60 49 90 112 90
c66 0 114 -30 114 -90c0 -59 -47 -88 -114 -88c-62 0 -112 29 -112 88z" />
    <glyph glyph-name="cdotaccent" unicode="&#x10b;" horiz-adv-x="564" 
d="M485 190l51 -127c-54 -37 -140 -75 -241 -75c-151 0 -273 89 -273 273c0 161 101 282 288 282c150 0 237 -72 237 -229h-174c-2 49 -18 74 -57 74c-44 0 -74 -37 -74 -120c0 -80 33 -122 92 -122c46 0 94 16 151 44zM190 665c0 60 49 90 112 90c66 0 114 -30 114 -90
c0 -59 -47 -88 -114 -88c-62 0 -112 29 -112 88z" />
    <glyph glyph-name="Ccaron" unicode="&#x10c;" horiz-adv-x="694" 
d="M581 254l89 -147c-89 -78 -192 -119 -307 -119c-220 0 -335 152 -335 368c0 221 121 377 353 377c155 0 289 -89 295 -292h-211c-5 66 -31 101 -93 101c-70 0 -117 -48 -117 -185c0 -122 53 -173 135 -173c75 0 138 33 191 70zM421 759h-99l-115 104l77 65l88 -55l89 55
l76 -66z" />
    <glyph glyph-name="ccaron" unicode="&#x10d;" horiz-adv-x="564" 
d="M485 190l51 -127c-54 -37 -140 -75 -241 -75c-151 0 -273 89 -273 273c0 161 101 282 288 282c150 0 237 -72 237 -229h-174c-2 49 -18 74 -57 74c-44 0 -74 -37 -74 -120c0 -80 33 -122 92 -122c46 0 94 16 151 44zM346 579h-102l-131 149l88 64l94 -77l94 77l90 -66z
" />
    <glyph glyph-name="Dcaron" unicode="&#x10e;" horiz-adv-x="720" 
d="M328 535h-66v-350h66c92 0 137 56 137 172c0 117 -45 178 -137 178zM45 720h289c242 0 358 -153 358 -363c0 -241 -123 -357 -393 -357h-31h-223v720zM345 759h-99l-115 104l77 65l88 -55l89 55l76 -66z" />
    <glyph glyph-name="dcaron" unicode="&#x10f;" horiz-adv-x="767" 
d="M408 0l-14 61c-26 -36 -78 -73 -157 -73c-141 0 -215 98 -215 276c0 194 113 279 233 279c46 0 92 -17 126 -46v223h208v-720h-181zM381 173v180c-15 16 -39 28 -68 28c-47 0 -71 -38 -71 -115c0 -70 17 -119 71 -119c28 0 53 10 68 26zM618 506l26 214h158l-57 -214
h-127z" />
    <glyph glyph-name="Dcroat" unicode="&#x110;" horiz-adv-x="771" 
d="M20 291v132h76v297h288c243 0 359 -153 359 -363c0 -241 -123 -357 -393 -357h-254v291h-76zM379 535h-66v-112h94v-132h-94v-106h66c92 0 136 56 136 172c0 117 -44 178 -136 178z" />
    <glyph glyph-name="dcroat" unicode="&#x111;" horiz-adv-x="626" 
d="M241 560v107h140v53h208v-53h50v-107h-50v-560h-181l-14 61c-28 -43 -78 -73 -144 -73c-154 0 -228 88 -228 266c0 182 113 259 233 259c46 0 92 -17 126 -46v93h-140zM381 173v150c-14 17 -39 35 -68 35c-47 0 -71 -33 -71 -106c0 -66 18 -110 72 -110c28 0 52 15 67 31
z" />
    <glyph glyph-name="Emacron" unicode="&#x112;" horiz-adv-x="595" 
d="M45 0v720h516v-189h-299v-91h272v-165h-272v-90h302v-185h-519zM147 773v124h295v-124h-295z" />
    <glyph glyph-name="emacron" unicode="&#x113;" horiz-adv-x="578" 
d="M491 169l38 -124c-64 -34 -138 -57 -231 -57c-176 0 -276 105 -276 272c0 172 108 283 281 283c161 0 255 -81 255 -247c0 -19 -1 -62 -5 -77h-311c2 -42 26 -82 93 -82c42 0 92 12 156 32zM242 325h119c-1 47 -15 80 -56 80c-46 0 -63 -42 -63 -80zM164 592v124h295
v-124h-295z" />
    <glyph glyph-name="Ebreve" unicode="&#x114;" horiz-adv-x="595" 
d="M45 0v720h516v-189h-299v-91h272v-165h-272v-90h302v-185h-519zM301 860c43 0 54 18 61 56l116 -16c-8 -84 -65 -137 -177 -137c-114 0 -169 47 -177 136l116 17c7 -39 22 -56 61 -56z" />
    <glyph glyph-name="ebreve" unicode="&#x115;" horiz-adv-x="578" 
d="M491 169l38 -124c-64 -34 -138 -57 -231 -57c-176 0 -276 105 -276 272c0 172 108 283 281 283c161 0 255 -81 255 -247c0 -19 -1 -62 -5 -77h-311c2 -42 26 -82 93 -82c42 0 92 12 156 32zM242 325h119c-1 47 -15 80 -56 80c-46 0 -63 -42 -63 -80zM310 684
c43 0 55 22 61 63l113 -16c-9 -90 -62 -144 -174 -144c-114 0 -164 49 -177 144l116 17c7 -43 22 -64 61 -64z" />
    <glyph glyph-name="Edotaccent" unicode="&#x116;" horiz-adv-x="595" 
d="M45 0v720h516v-189h-299v-91h272v-165h-272v-90h302v-185h-519zM190 845c0 60 49 90 112 90c66 0 114 -30 114 -90c0 -59 -47 -88 -114 -88c-62 0 -112 29 -112 88z" />
    <glyph glyph-name="edotaccent" unicode="&#x117;" horiz-adv-x="578" 
d="M491 169l38 -124c-64 -34 -138 -57 -231 -57c-176 0 -276 105 -276 272c0 172 108 283 281 283c161 0 255 -81 255 -247c0 -19 -1 -62 -5 -77h-311c2 -42 26 -82 93 -82c42 0 92 12 156 32zM242 325h119c-1 47 -15 80 -56 80c-46 0 -63 -42 -63 -80zM193 665
c0 60 49 90 112 90c66 0 114 -30 114 -90c0 -59 -47 -88 -114 -88c-62 0 -112 29 -112 88z" />
    <glyph glyph-name="Eogonek" unicode="&#x118;" horiz-adv-x="597" 
d="M41 0v720h516v-189h-299v-91h272v-165h-272v-90h302v-185h-50c-39 -39 -66 -78 -66 -108c0 -19 9 -28 26 -28c15 0 29 3 50 10l23 -83c-28 -15 -78 -33 -128 -33c-84 0 -111 45 -111 95c0 54 36 102 86 147h-349z" />
    <glyph glyph-name="eogonek" unicode="&#x119;" horiz-adv-x="578" 
d="M491 169l38 -124c-26 -14 -56 -30 -80 -45c-53 -32 -77 -76 -77 -108c0 -19 9 -28 26 -28c15 0 29 3 50 10l23 -83c-28 -15 -78 -33 -128 -33c-84 0 -111 45 -111 95s30 94 73 135h-7c-176 0 -276 105 -276 272c0 172 108 283 281 283c161 0 255 -81 255 -247
c0 -19 -1 -62 -5 -77h-311c2 -42 26 -82 93 -82c42 0 92 12 156 32zM242 325h119c-1 47 -15 80 -56 80c-46 0 -63 -42 -63 -80z" />
    <glyph glyph-name="Ecaron" unicode="&#x11a;" horiz-adv-x="595" 
d="M45 0v720h516v-189h-299v-91h272v-165h-272v-90h302v-185h-519zM351 760h-99l-115 104l77 65l88 -55l89 55l76 -66z" />
    <glyph glyph-name="ecaron" unicode="&#x11b;" horiz-adv-x="578" 
d="M491 169l38 -124c-64 -34 -138 -57 -231 -57c-176 0 -276 105 -276 272c0 172 108 283 281 283c161 0 255 -81 255 -247c0 -19 -1 -62 -5 -77h-311c2 -42 26 -82 93 -82c42 0 92 12 156 32zM242 325h119c-1 47 -15 80 -56 80c-46 0 -63 -42 -63 -80zM355 579h-102
l-131 149l88 64l94 -77l94 77l90 -66z" />
    <glyph glyph-name="Gcircumflex" unicode="&#x11c;" horiz-adv-x="711" 
d="M383 248v145h292v-294c-87 -87 -197 -111 -305 -111c-252 0 -342 177 -342 367c0 218 104 378 353 378c196 0 282 -111 294 -267h-214c-6 49 -31 76 -87 76c-72 0 -119 -56 -119 -182c0 -110 35 -191 123 -191c42 0 79 10 106 34v45h-101zM319 922h99l115 -104l-77 -65
l-88 55l-89 -55l-76 66z" />
    <glyph glyph-name="gcircumflex" unicode="&#x11d;" horiz-adv-x="628" 
d="M589 531v-480c0 -198 -88 -260 -258 -260c-96 0 -181 19 -227 37l28 139c48 -12 106 -26 161 -26c72 0 96 22 96 92v35c-36 -46 -92 -66 -147 -66c-126 0 -220 74 -220 257c0 180 85 284 231 284c66 0 118 -28 152 -62l15 50h169zM381 187v165c-15 17 -38 32 -67 32
c-51 0 -72 -45 -72 -116c0 -75 22 -107 73 -107c28 0 50 11 66 26zM260 780h102l131 -149l-88 -64l-94 77l-94 -77l-90 66z" />
    <glyph glyph-name="Gbreve" unicode="&#x11e;" horiz-adv-x="711" 
d="M383 248v145h292v-294c-87 -87 -197 -111 -305 -111c-252 0 -342 177 -342 367c0 218 104 378 353 378c196 0 282 -111 294 -267h-214c-6 49 -31 76 -87 76c-72 0 -119 -56 -119 -182c0 -110 35 -191 123 -191c42 0 79 10 106 34v45h-101zM365 859c43 0 54 18 61 56
l116 -16c-8 -84 -65 -137 -177 -137c-114 0 -169 47 -177 136l116 17c7 -39 22 -56 61 -56z" />
    <glyph glyph-name="gbreve" unicode="&#x11f;" horiz-adv-x="628" 
d="M589 531v-480c0 -198 -88 -260 -258 -260c-96 0 -181 19 -227 37l28 139c48 -12 106 -26 161 -26c72 0 96 22 96 92v35c-36 -46 -92 -66 -147 -66c-126 0 -220 74 -220 257c0 180 85 284 231 284c66 0 118 -28 152 -62l15 50h169zM381 187v165c-15 17 -38 32 -67 32
c-51 0 -72 -45 -72 -116c0 -75 22 -107 73 -107c28 0 50 11 66 26zM309 684c43 0 55 22 61 63l113 -16c-9 -90 -62 -144 -174 -144c-114 0 -164 49 -177 144l116 17c7 -43 22 -64 61 -64z" />
    <glyph glyph-name="Gdotaccent" unicode="&#x120;" horiz-adv-x="711" 
d="M383 248v145h292v-294c-87 -87 -197 -111 -305 -111c-252 0 -342 177 -342 367c0 218 104 378 353 378c196 0 282 -111 294 -267h-214c-6 49 -31 76 -87 76c-72 0 -119 -56 -119 -182c0 -110 35 -191 123 -191c42 0 79 10 106 34v45h-101zM261 844c0 60 49 90 112 90
c66 0 114 -30 114 -90c0 -59 -47 -88 -114 -88c-62 0 -112 29 -112 88z" />
    <glyph glyph-name="gdotaccent" unicode="&#x121;" horiz-adv-x="628" 
d="M589 531v-480c0 -198 -88 -260 -258 -260c-96 0 -181 19 -227 37l28 139c48 -12 106 -26 161 -26c72 0 96 22 96 92v35c-36 -46 -92 -66 -147 -66c-126 0 -220 74 -220 257c0 180 85 284 231 284c66 0 118 -28 152 -62l15 50h169zM381 187v165c-15 17 -38 32 -67 32
c-51 0 -72 -45 -72 -116c0 -75 22 -107 73 -107c28 0 50 11 66 26zM194 665c0 60 49 90 112 90c66 0 114 -30 114 -90c0 -59 -47 -88 -114 -88c-62 0 -112 29 -112 88z" />
    <glyph glyph-name="Gcommaaccent" unicode="&#x122;" horiz-adv-x="699" 
d="M383 248v145h292v-294c-87 -87 -197 -111 -305 -111c-252 0 -342 177 -342 367c0 218 104 378 353 378c196 0 282 -111 294 -267h-214c-6 49 -31 76 -87 76c-72 0 -119 -56 -119 -182c0 -110 35 -191 123 -191c42 0 79 10 106 34v45h-101zM282 -228l38 186l149 -39
l-71 -182z" />
    <glyph glyph-name="gcommaaccent" unicode="&#x123;" horiz-adv-x="628" 
d="M589 531v-480c0 -198 -88 -260 -258 -260c-96 0 -181 19 -227 37l28 139c48 -12 106 -26 161 -26c72 0 96 22 96 92v35c-36 -46 -92 -66 -147 -66c-126 0 -220 74 -220 257c0 180 85 284 231 284c66 0 118 -28 152 -62l15 50h169zM381 187v165c-15 17 -38 32 -67 32
c-51 0 -72 -45 -72 -116c0 -75 22 -107 73 -107c28 0 50 11 66 26zM426 767l-46 -200l-157 39l74 195z" />
    <glyph glyph-name="Hcircumflex" unicode="&#x124;" horiz-adv-x="720" 
d="M45 0v720h217v-270h196v270h217v-720h-217v255h-196v-255h-217zM313 922h99l115 -104l-77 -65l-88 55l-89 -55l-76 66z" />
    <glyph glyph-name="hcircumflex" unicode="&#x125;" horiz-adv-x="597" 
d="M41 720h208v-228c30 25 71 51 142 51c112 0 170 -62 170 -178v-365h-208v313c0 52 -11 66 -43 66c-25 0 -49 -16 -61 -29v-350h-208v720zM95 921h99l115 -104l-77 -65l-88 55l-89 -55l-76 66z" />
    <glyph glyph-name="Hbar" unicode="&#x126;" horiz-adv-x="766" 
d="M10 512v123h59v85h217v-85h196v85h217v-85h57v-123h-57v-512h-217v255h-196v-255h-217v512h-59zM286 450h196v62h-196v-62z" />
    <glyph glyph-name="hbar" unicode="&#x127;" horiz-adv-x="597" 
d="M41 667v53h208v-53h131v-107h-131v-110c30 25 71 51 142 51c112 0 170 -62 170 -178v-323h-208v271c0 52 -11 66 -43 66c-25 0 -49 -16 -61 -29v-308h-208v560h-59v107h59z" />
    <glyph glyph-name="Itilde" unicode="&#x128;" horiz-adv-x="307" 
d="M45 0v720h217v-720h-217zM251 931l95 -42c-15 -69 -51 -121 -111 -121c-58 0 -102 29 -129 29c-17 0 -28 -6 -42 -35l-94 39c16 65 53 129 109 129c54 0 98 -29 127 -29c18 0 32 4 45 30z" />
    <glyph glyph-name="itilde" unicode="&#x129;" horiz-adv-x="293" 
d="M251 531v-531h-208v531h208zM241 754l95 -42c-15 -69 -51 -121 -111 -121c-58 0 -102 29 -129 29c-17 0 -28 -6 -42 -35l-94 39c16 65 53 129 109 129c54 0 98 -29 127 -29c18 0 32 4 45 30z" />
    <glyph glyph-name="Imacron" unicode="&#x12a;" horiz-adv-x="307" 
d="M45 0v720h217v-720h-217zM2 772v124h295v-124h-295z" />
    <glyph glyph-name="imacron" unicode="&#x12b;" horiz-adv-x="293" 
d="M251 531v-531h-208v531h208zM0 592v124h295v-124h-295z" />
    <glyph glyph-name="Ibreve" unicode="&#x12c;" horiz-adv-x="307" 
d="M45 0v720h217v-720h-217zM150 859c43 0 54 18 61 56l116 -16c-8 -84 -65 -137 -177 -137c-114 0 -169 47 -177 136l116 17c7 -39 22 -56 61 -56z" />
    <glyph glyph-name="ibreve" unicode="&#x12d;" horiz-adv-x="293" 
d="M251 531v-531h-208v531h208zM147 684c43 0 55 22 61 63l113 -16c-9 -90 -62 -144 -174 -144c-114 0 -164 49 -177 144l116 17c7 -43 22 -64 61 -64z" />
    <glyph glyph-name="Iogonek" unicode="&#x12e;" horiz-adv-x="299" 
d="M41 0v720h217v-720h-36c-39 -39 -66 -78 -66 -108c0 -19 9 -28 26 -28c15 0 29 3 50 10l23 -83c-28 -15 -78 -33 -128 -33c-84 0 -111 45 -111 95c0 54 36 102 86 147h-61z" />
    <glyph glyph-name="iogonek" unicode="&#x12f;" horiz-adv-x="294" 
d="M251 531v-531h-43c-39 -39 -66 -78 -66 -108c0 -19 9 -28 26 -28c15 0 29 3 50 10l23 -83c-28 -15 -78 -33 -128 -33c-84 0 -111 45 -111 95c0 54 36 102 86 147h-45v531h208zM34 665c0 63 49 95 113 95c65 0 113 -32 113 -95c0 -62 -47 -93 -113 -93
c-63 0 -113 29 -113 93z" />
    <glyph glyph-name="Idotaccent" unicode="&#x130;" horiz-adv-x="307" 
d="M45 0v720h217v-720h-217zM37 844c0 60 49 90 112 90c66 0 114 -30 114 -90c0 -59 -47 -88 -114 -88c-62 0 -112 29 -112 88z" />
    <glyph glyph-name="dotlessi" unicode="&#x131;" horiz-adv-x="294" 
d="M251 531v-531h-208v531h208z" />
    <glyph glyph-name="IJ" unicode="&#x132;" horiz-adv-x="744" 
d="M45 0v720h217v-720h-217zM703 720v-502c0 -158 -75 -230 -207 -230c-76 0 -135 11 -168 20l10 171c22 -6 51 -9 80 -9c54 0 68 19 68 77v473h217z" />
    <glyph glyph-name="ij" unicode="&#x133;" horiz-adv-x="587" 
d="M34 665c0 63 49 95 113 95c65 0 113 -32 113 -95c0 -62 -47 -93 -113 -93c-63 0 -113 29 -113 93zM251 531v-531h-208v531h208zM546 531v-557c0 -121 -57 -183 -185 -183c-43 0 -80 5 -111 14l11 132c14 -3 26 -4 39 -4c27 0 38 9 38 42v556h208zM331 665
c0 63 49 95 113 95c65 0 113 -32 113 -95c0 -62 -47 -93 -113 -93c-63 0 -113 29 -113 93z" />
    <glyph glyph-name="Jcircumflex" unicode="&#x134;" horiz-adv-x="430" 
d="M390 720v-502c0 -158 -75 -230 -207 -230c-76 0 -135 11 -168 20l10 171c22 -6 51 -9 80 -9c54 0 68 19 68 77v473h217zM230 922h99l115 -104l-77 -65l-88 55l-89 -55l-76 66z" />
    <glyph glyph-name="jcircumflex" unicode="&#x135;" horiz-adv-x="290" 
d="M249 531v-557c0 -121 -57 -183 -185 -183c-43 0 -80 5 -111 14l11 132c14 -3 26 -4 39 -4c27 0 38 9 38 42v556h208zM86 780h102l131 -149l-88 -64l-94 77l-94 -77l-90 66z" />
    <glyph glyph-name="Kcommaaccent" unicode="&#x136;" horiz-adv-x="692" 
d="M41 0v720h217v-273h50l140 273h241l-195 -359l209 -361h-246l-148 271h-51v-271h-217zM253 -228l38 186l149 -39l-71 -182z" />
    <glyph glyph-name="kcommaaccent" unicode="&#x137;" horiz-adv-x="601" 
d="M249 720v-352h26l88 163h223l-139 -241l162 -290h-236l-104 207h-20v-207h-208v720h208zM217 -228l38 186l149 -39l-71 -182z" />
    <glyph glyph-name="kgreenlandic" unicode="&#x138;" horiz-adv-x="602" 
d="M242 531v-171h27l100 171h213l-153 -250l180 -281h-215l-131 198h-21v-198h-208v531h208z" />
    <glyph glyph-name="Lacute" unicode="&#x139;" horiz-adv-x="568" 
d="M45 720h217v-535h285v-185h-502v720zM22 840l195 122l68 -122l-208 -92z" />
    <glyph glyph-name="lacute" unicode="&#x13a;" horiz-adv-x="290" 
d="M249 0h-208v720h208v-720zM7 840l195 122l68 -122l-208 -92z" />
    <glyph glyph-name="Lcommaaccent" unicode="&#x13b;" horiz-adv-x="560" 
d="M41 720h217v-535h285v-185h-502v720zM184 -228l38 186l149 -39l-71 -182z" />
    <glyph glyph-name="lcommaaccent" unicode="&#x13c;" horiz-adv-x="290" 
d="M249 0h-208v720h208v-720zM33 -228l38 186l149 -39l-71 -182z" />
    <glyph glyph-name="Lcaron" unicode="&#x13d;" horiz-adv-x="560" 
d="M41 720h217v-535h285v-185h-502v720zM324 506l26 214h158l-57 -214h-127z" />
    <glyph glyph-name="lcaron" unicode="&#x13e;" horiz-adv-x="440" 
d="M249 0h-208v720h208v-720zM291 506l26 214h158l-57 -214h-127z" />
    <glyph glyph-name="Ldot" unicode="&#x13f;" horiz-adv-x="560" 
d="M41 720h217v-535h285v-185h-502v720zM325 388c0 62 43 102 109 102c65 0 107 -40 107 -102c0 -59 -40 -102 -107 -102c-69 0 -109 43 -109 102z" />
    <glyph glyph-name="ldot" unicode="&#x140;" horiz-adv-x="491" 
d="M249 0h-208v720h208v-720zM285 348c0 62 43 102 109 102c65 0 107 -40 107 -102c0 -59 -40 -102 -107 -102c-69 0 -109 43 -109 102z" />
    <glyph glyph-name="Lslash" unicode="&#x141;" horiz-adv-x="568" 
d="M45 720h217v-254l2 1l160 62v-146l-158 -61l-4 -2v-135h285v-185h-502v252l-56 -22v147l56 21v322z" />
    <glyph glyph-name="lslash" unicode="&#x142;" horiz-adv-x="362" 
d="M10 229v163l68 31v297h208v-230l70 31v-163l-70 -30v-328h-208v260z" />
    <glyph glyph-name="Nacute" unicode="&#x143;" horiz-adv-x="727" 
d="M45 0v720h186l238 -370v370h213v-720h-186l-238 350v-350h-213zM248 840l195 122l68 -122l-208 -92z" />
    <glyph glyph-name="nacute" unicode="&#x144;" horiz-adv-x="597" 
d="M41 531h170l19 -55c32 33 90 67 161 67c112 0 170 -62 170 -178v-365h-208v313c0 52 -12 66 -44 66c-25 0 -48 -16 -60 -29v-350h-208v531zM180 656l178 160l93 -112l-194 -139z" />
    <glyph glyph-name="Ncommaaccent" unicode="&#x145;" horiz-adv-x="719" 
d="M41 0v720h186l238 -370v370h213v-720h-186l-238 350v-350h-213zM270 -228l38 186l149 -39l-71 -182z" />
    <glyph glyph-name="ncommaaccent" unicode="&#x146;" horiz-adv-x="597" 
d="M41 531h170l19 -55c32 33 90 67 161 67c112 0 170 -62 170 -178v-365h-208v313c0 52 -12 66 -44 66c-25 0 -48 -16 -60 -29v-350h-208v531zM207 -228l38 186l149 -39l-71 -182z" />
    <glyph glyph-name="Ncaron" unicode="&#x147;" horiz-adv-x="727" 
d="M45 0v720h186l238 -370v370h213v-720h-186l-238 350v-350h-213zM409 759h-99l-115 104l77 65l88 -55l89 55l76 -66z" />
    <glyph glyph-name="ncaron" unicode="&#x148;" horiz-adv-x="597" 
d="M41 531h170l19 -55c32 33 90 67 161 67c112 0 170 -62 170 -178v-365h-208v313c0 52 -12 66 -44 66c-25 0 -48 -16 -60 -29v-350h-208v531zM349 579h-102l-131 149l88 64l94 -77l94 77l90 -66z" />
    <glyph glyph-name="napostrophe" unicode="&#x149;" horiz-adv-x="668" 
d="M112 531h170l19 -55c32 33 90 67 161 67c112 0 170 -62 170 -178v-365h-208v313c0 52 -12 66 -44 66c-25 0 -48 -16 -60 -29v-350h-208v531zM-16 673c0 40 32 71 75 71c53 0 82 -41 82 -92c0 -76 -49 -128 -131 -149l-18 55c40 14 54 29 61 56c-39 -5 -69 20 -69 59z" />
    <glyph glyph-name="Eng" unicode="&#x14a;" horiz-adv-x="719" 
d="M41 0v720h186l237 -370v370h214v-738c0 -121 -68 -186 -192 -186c-62 0 -112 9 -143 19l11 132c13 -4 38 -9 62 -9c37 0 53 20 53 65v31l-215 316v-350h-213z" />
    <glyph glyph-name="eng" unicode="&#x14b;" horiz-adv-x="597" 
d="M41 531h170l19 -55c32 33 90 67 154 67c107 0 177 -62 177 -178v-386c0 -121 -57 -183 -185 -183c-43 0 -80 5 -111 14l11 132c14 -3 26 -4 39 -4c28 0 38 9 38 42v333c0 58 -13 75 -45 75c-25 0 -44 -17 -59 -32v-356h-208v531z" />
    <glyph glyph-name="Omacron" unicode="&#x14c;" horiz-adv-x="791" 
d="M255 360c0 -98 43 -176 141 -176s140 78 140 176c0 94 -42 177 -140 177s-141 -83 -141 -177zM28 360c0 221 136 372 368 372c231 0 368 -151 368 -372c0 -225 -137 -372 -371 -372c-236 0 -365 147 -365 372zM248 772v124h295v-124h-295z" />
    <glyph glyph-name="omacron" unicode="&#x14d;" horiz-adv-x="630" 
d="M242 266c0 -85 27 -119 74 -119c43 0 72 34 72 119s-28 120 -72 120c-47 0 -74 -36 -74 -120zM22 266c0 193 137 277 296 277c171 0 290 -83 290 -277c0 -190 -135 -278 -302 -278c-162 0 -284 88 -284 278zM168 592v124h295v-124h-295z" />
    <glyph glyph-name="Obreve" unicode="&#x14e;" horiz-adv-x="791" 
d="M255 360c0 -98 43 -176 141 -176s140 78 140 176c0 94 -42 177 -140 177s-141 -83 -141 -177zM28 360c0 221 136 372 368 372c231 0 368 -151 368 -372c0 -225 -137 -372 -371 -372c-236 0 -365 147 -365 372zM396 859c43 0 54 18 61 56l116 -16
c-8 -84 -65 -137 -177 -137c-114 0 -169 47 -177 136l116 17c7 -39 22 -56 61 -56z" />
    <glyph glyph-name="obreve" unicode="&#x14f;" horiz-adv-x="630" 
d="M242 266c0 -85 27 -119 74 -119c43 0 72 34 72 119s-28 120 -72 120c-47 0 -74 -36 -74 -120zM22 266c0 193 137 277 296 277c171 0 290 -83 290 -277c0 -190 -135 -278 -302 -278c-162 0 -284 88 -284 278zM314 684c43 0 55 22 61 63l113 -16c-9 -90 -62 -144 -174 -144
c-114 0 -164 49 -177 144l116 17c7 -43 22 -64 61 -64z" />
    <glyph glyph-name="Ohungarumlaut" unicode="&#x150;" horiz-adv-x="791" 
d="M255 360c0 -98 43 -176 141 -176s140 78 140 176c0 94 -42 177 -140 177s-141 -83 -141 -177zM28 360c0 221 136 372 368 372c231 0 368 -151 368 -372c0 -225 -137 -372 -371 -372c-236 0 -365 147 -365 372zM345 984l109 -86l-149 -150l-87 65zM553 967l102 -86
l-145 -135l-83 68z" />
    <glyph glyph-name="ohungarumlaut" unicode="&#x151;" horiz-adv-x="630" 
d="M242 266c0 -85 27 -119 74 -119c43 0 72 34 72 119s-28 120 -72 120c-47 0 -74 -36 -74 -120zM22 266c0 193 137 277 296 277c171 0 290 -83 290 -277c0 -190 -135 -278 -302 -278c-162 0 -284 88 -284 278zM241 804l122 -65l-121 -174l-97 49zM434 790l115 -67
l-119 -158l-94 52z" />
    <glyph glyph-name="OE" unicode="&#x152;" horiz-adv-x="1085" 
d="M553 0v62c-40 -51 -113 -74 -204 -74c-196 0 -321 147 -321 372c0 221 136 373 332 373c88 0 158 -30 195 -73v60h497v-188h-300v-92h272v-164h-272v-91h302v-185h-501zM255 360c0 -98 43 -176 141 -176c91 0 140 69 140 175c0 107 -45 178 -140 178
c-98 0 -141 -83 -141 -177z" />
    <glyph glyph-name="oe" unicode="&#x153;" horiz-adv-x="937" 
d="M22 260c0 189 129 283 265 283c96 0 161 -39 198 -109c41 72 110 109 201 109c148 0 231 -101 231 -247c0 -38 -3 -65 -5 -77h-312c3 -55 31 -86 89 -86c43 0 92 13 160 36l38 -124c-67 -40 -126 -57 -213 -57c-80 0 -160 35 -194 85c-41 -51 -106 -85 -198 -85
c-140 0 -260 82 -260 272zM239 264c0 -88 30 -117 73 -117c42 0 72 29 72 113c0 91 -30 126 -72 126c-43 0 -73 -37 -73 -122zM600 325h119c0 54 -15 80 -56 80c-46 0 -62 -40 -63 -80z" />
    <glyph glyph-name="Racute" unicode="&#x154;" horiz-adv-x="684" 
d="M45 720h303c186 0 283 -97 283 -243c0 -94 -33 -158 -101 -200l143 -277h-240l-102 223h-69v-223h-217v720zM336 530h-74v-151h71c53 0 81 29 81 76c0 48 -26 75 -78 75zM175 840l195 122l68 -122l-208 -92z" />
    <glyph glyph-name="racute" unicode="&#x155;" horiz-adv-x="396" 
d="M201 531l25 -66c25 45 61 78 105 78c24 0 43 -5 60 -13l-13 -180c-23 5 -33 7 -57 7c-26 0 -56 -18 -72 -41v-316h-208v531h160zM101 656l178 160l93 -112l-194 -139z" />
    <glyph glyph-name="Rcommaaccent" unicode="&#x156;" horiz-adv-x="711" 
d="M41 720h303c186 0 283 -97 283 -243c0 -94 -33 -158 -101 -200l143 -277h-240l-102 223h-69v-223h-217v720zM332 530h-74v-151h71c53 0 81 29 81 76c0 48 -26 75 -78 75zM240 -228l38 186l149 -39l-71 -182z" />
    <glyph glyph-name="rcommaaccent" unicode="&#x157;" horiz-adv-x="396" 
d="M201 531l25 -66c25 45 61 78 105 78c24 0 43 -5 60 -13l-13 -180c-23 5 -33 7 -57 7c-26 0 -56 -18 -72 -41v-316h-208v531h160zM33 -228l38 186l149 -39l-71 -182z" />
    <glyph glyph-name="Rcaron" unicode="&#x158;" horiz-adv-x="684" 
d="M45 720h303c186 0 283 -97 283 -243c0 -94 -33 -158 -101 -200l143 -277h-240l-102 223h-69v-223h-217v720zM336 530h-74v-151h71c53 0 81 29 81 76c0 48 -26 75 -78 75zM335 759h-99l-115 104l77 65l88 -55l89 55l76 -66z" />
    <glyph glyph-name="rcaron" unicode="&#x159;" horiz-adv-x="396" 
d="M201 531l25 -66c25 45 61 78 105 78c24 0 43 -5 60 -13l-13 -180c-23 5 -33 7 -57 7c-26 0 -56 -18 -72 -41v-316h-208v531h160zM270 579h-102l-131 149l88 64l94 -77l94 77l90 -66z" />
    <glyph glyph-name="Sacute" unicode="&#x15a;" horiz-adv-x="630" 
d="M5 110l104 142c58 -40 151 -84 209 -84c40 0 54 13 54 34c0 34 -42 42 -129 68c-117 35 -203 97 -203 218c0 173 129 245 282 245c119 0 217 -50 283 -117l-101 -126c-51 38 -113 67 -171 67c-37 0 -52 -10 -52 -31c0 -26 28 -37 101 -60c108 -34 219 -77 219 -233
c0 -142 -108 -245 -281 -245c-124 0 -240 53 -315 122zM199 840l195 122l68 -122l-208 -92z" />
    <glyph glyph-name="sacute" unicode="&#x15b;" horiz-adv-x="528" 
d="M12 80l78 116c42 -26 118 -61 163 -61c24 0 33 9 33 26c0 22 -19 26 -79 41c-93 24 -163 60 -163 157c0 123 97 184 226 184c92 0 187 -34 238 -75l-73 -109c-39 24 -104 44 -135 44c-22 0 -33 -10 -33 -23c0 -19 19 -26 72 -40c88 -23 169 -54 169 -162
c0 -121 -90 -190 -236 -190c-106 0 -202 43 -260 92zM146 656l178 160l93 -112l-194 -139z" />
    <glyph glyph-name="Scircumflex" unicode="&#x15c;" horiz-adv-x="630" 
d="M5 110l104 142c58 -40 151 -84 209 -84c40 0 54 13 54 34c0 34 -42 42 -129 68c-117 35 -203 97 -203 218c0 173 129 245 282 245c119 0 217 -50 283 -117l-101 -126c-51 38 -113 67 -171 67c-37 0 -52 -10 -52 -31c0 -26 28 -37 101 -60c108 -34 219 -77 219 -233
c0 -142 -108 -245 -281 -245c-124 0 -240 53 -315 122zM270 922h99l115 -104l-77 -65l-88 55l-89 -55l-76 66z" />
    <glyph glyph-name="scircumflex" unicode="&#x15d;" horiz-adv-x="528" 
d="M12 80l78 116c42 -26 118 -61 163 -61c24 0 33 9 33 26c0 22 -19 26 -79 41c-93 24 -163 60 -163 157c0 123 97 184 226 184c92 0 187 -34 238 -75l-73 -109c-39 24 -104 44 -135 44c-22 0 -33 -10 -33 -23c0 -19 19 -26 72 -40c88 -23 169 -54 169 -162
c0 -121 -90 -190 -236 -190c-106 0 -202 43 -260 92zM222 780h102l131 -149l-88 -64l-94 77l-94 -77l-90 66z" />
    <glyph glyph-name="Scedilla" unicode="&#x15e;" horiz-adv-x="630" 
d="M211 -216l13 73c19 -5 44 -10 67 -10c28 0 41 6 41 25c0 22 -19 28 -60 28h-22l17 91c-103 12 -198 60 -262 119l104 142c58 -40 151 -84 209 -84c40 0 54 13 54 34c0 34 -42 42 -129 68c-117 35 -203 97 -203 218c0 173 129 245 282 245c119 0 217 -50 283 -117
l-101 -126c-51 38 -113 67 -171 67c-37 0 -52 -10 -52 -31c0 -26 28 -37 101 -60c108 -34 219 -77 219 -233c0 -137 -100 -237 -261 -244l-5 -29c57 -5 100 -27 100 -86c0 -65 -41 -108 -123 -108c-43 0 -81 9 -101 18z" />
    <glyph glyph-name="scedilla" unicode="&#x15f;" horiz-adv-x="528" 
d="M158 -216l13 73c19 -5 44 -10 67 -10c28 0 41 6 41 25c0 22 -19 28 -60 28h-22l17 93c-82 11 -155 47 -202 87l78 116c42 -26 118 -61 163 -61c24 0 33 9 33 26c0 22 -19 26 -79 41c-93 24 -163 60 -163 157c0 123 97 184 226 184c92 0 187 -34 238 -75l-73 -109
c-39 24 -104 44 -135 44c-22 0 -33 -10 -33 -23c0 -19 19 -26 72 -40c88 -23 169 -54 169 -162c0 -117 -84 -185 -221 -190l-5 -28c57 -5 100 -27 100 -86c0 -65 -41 -108 -123 -108c-43 0 -81 9 -101 18z" />
    <glyph glyph-name="Scaron" unicode="&#x160;" horiz-adv-x="630" 
d="M5 110l104 142c58 -40 151 -84 209 -84c40 0 54 13 54 34c0 34 -42 42 -129 68c-117 35 -203 97 -203 218c0 173 129 245 282 245c119 0 217 -50 283 -117l-101 -126c-51 38 -113 67 -171 67c-37 0 -52 -10 -52 -31c0 -26 28 -37 101 -60c108 -34 219 -77 219 -233
c0 -142 -108 -245 -281 -245c-124 0 -240 53 -315 122zM367 759h-99l-115 104l77 65l88 -55l89 55l76 -66z" />
    <glyph glyph-name="scaron" unicode="&#x161;" horiz-adv-x="528" 
d="M12 80l78 116c42 -26 118 -61 163 -61c24 0 33 9 33 26c0 22 -19 26 -79 41c-93 24 -163 60 -163 157c0 123 97 184 226 184c92 0 187 -34 238 -75l-73 -109c-39 24 -104 44 -135 44c-22 0 -33 -10 -33 -23c0 -19 19 -26 72 -40c88 -23 169 -54 169 -162
c0 -121 -90 -190 -236 -190c-106 0 -202 43 -260 92zM322 579h-102l-131 149l88 64l94 -77l94 77l90 -66z" />
    <glyph glyph-name="Scommaaccent" unicode="&#x218;" horiz-adv-x="630" 
d="M5 110l104 142c58 -40 151 -84 209 -84c40 0 54 13 54 34c0 34 -42 42 -129 68c-117 35 -203 97 -203 218c0 173 129 245 282 245c119 0 217 -50 283 -117l-101 -126c-51 38 -113 67 -171 67c-37 0 -52 -10 -52 -31c0 -26 28 -37 101 -60c108 -34 219 -77 219 -233
c0 -142 -108 -245 -281 -245c-124 0 -240 53 -315 122zM213 -228l38 186l149 -39l-71 -182z" />
    <glyph glyph-name="scommaaccent" unicode="&#x219;" horiz-adv-x="528" 
d="M12 80l78 116c42 -26 118 -61 163 -61c24 0 33 9 33 26c0 22 -19 26 -79 41c-93 24 -163 60 -163 157c0 123 97 184 226 184c92 0 187 -34 238 -75l-73 -109c-39 24 -104 44 -135 44c-22 0 -33 -10 -33 -23c0 -19 19 -26 72 -40c88 -23 169 -54 169 -162
c0 -121 -90 -190 -236 -190c-106 0 -202 43 -260 92zM164 -228l38 186l149 -39l-71 -182z" />
    <glyph glyph-name="uni021A" unicode="&#x21a;" horiz-adv-x="637" 
d="M210 0v531h-200v189h616v-189h-200v-531h-216zM205 -228l38 186l149 -39l-71 -182z" />
    <glyph glyph-name="uni021B" unicode="&#x21b;" horiz-adv-x="389" 
d="M371 384h-83v-208c0 -23 8 -33 32 -33c15 0 29 3 42 6l18 -138c-49 -16 -93 -23 -144 -23c-111 0 -156 60 -156 148v248h-72v112l77 34l16 162h187v-161h83v-147zM134 -228l38 186l149 -39l-71 -182z" />
    <glyph glyph-name="Tcaron" unicode="&#x164;" horiz-adv-x="640" 
d="M212 0v531h-200v189h616v-189h-200v-531h-216zM367 759h-99l-115 104l77 65l88 -55l89 55l76 -66z" />
    <glyph glyph-name="tcaron" unicode="&#x165;" horiz-adv-x="401" 
d="M371 384h-83v-208c0 -23 8 -33 32 -33c15 0 29 3 42 6l18 -138c-49 -16 -93 -23 -144 -23c-111 0 -156 60 -156 148v248h-72v112l77 34l16 162h187v-161h83v-147zM322 589l26 214h158l-57 -214h-127z" />
    <glyph glyph-name="Tbar" unicode="&#x166;" horiz-adv-x="637" 
d="M105 270v134h105v127h-200v189h616v-189h-200v-127h105v-134h-105v-270h-216v270h-105z" />
    <glyph glyph-name="tbar" unicode="&#x167;" horiz-adv-x="389" 
d="M371 384h-83v-61h86v-106h-86v-41c0 -23 8 -33 32 -33c15 0 29 3 42 6l18 -138c-49 -16 -93 -23 -144 -23c-111 0 -156 60 -156 148v81h-70v106h70v61h-72v112l77 34l16 162h187v-161h83v-147z" />
    <glyph glyph-name="uni0162" unicode="&#x162;" horiz-adv-x="637" 
d="M210 0v531h-200v189h616v-189h-200v-531h-76l-7 -40c57 -5 100 -27 100 -86c0 -65 -41 -108 -123 -108c-43 0 -81 9 -101 18l13 73c19 -5 44 -10 67 -10c28 0 41 6 41 25c0 22 -19 28 -60 28h-22l19 100h-67z" />
    <glyph glyph-name="uni0163" unicode="&#x163;" horiz-adv-x="389" 
d="M118 -216l13 73c19 -5 44 -10 67 -10c28 0 41 6 41 25c0 22 -19 28 -60 28h-22l18 96c-67 18 -95 70 -95 140v248h-72v112l77 34l16 162h187v-161h83v-147h-83v-208c0 -23 8 -33 32 -33c15 0 29 3 42 6l18 -138c-46 -15 -87 -22 -133 -23l-5 -28c57 -5 100 -27 100 -86
c0 -65 -41 -108 -123 -108c-43 0 -81 9 -101 18z" />
    <glyph glyph-name="Utilde" unicode="&#x168;" horiz-adv-x="701" 
d="M40 720h217v-439c0 -72 38 -102 93 -102c58 0 95 29 95 102v439h216v-440c0 -197 -117 -292 -311 -292c-200 0 -310 95 -310 292v440zM453 931l95 -42c-15 -69 -51 -121 -111 -121c-58 0 -102 29 -129 29c-17 0 -28 -6 -42 -35l-94 39c16 65 53 129 109 129
c54 0 98 -29 127 -29c18 0 32 4 45 30z" />
    <glyph glyph-name="utilde" unicode="&#x169;" horiz-adv-x="598" 
d="M557 0h-165l-26 60c-33 -44 -84 -72 -155 -72c-115 0 -175 66 -175 176v367h209v-326c0 -38 12 -57 44 -57c25 0 50 14 61 27v356h207v-531zM395 754l95 -42c-15 -69 -51 -121 -111 -121c-58 0 -102 29 -129 29c-17 0 -28 -6 -42 -35l-94 39c16 65 53 129 109 129
c54 0 98 -29 127 -29c18 0 32 4 45 30z" />
    <glyph glyph-name="Umacron" unicode="&#x16a;" horiz-adv-x="701" 
d="M40 720h217v-439c0 -72 38 -102 93 -102c58 0 95 29 95 102v439h216v-440c0 -197 -117 -292 -311 -292c-200 0 -310 95 -310 292v440zM202 772v124h295v-124h-295z" />
    <glyph glyph-name="umacron" unicode="&#x16b;" horiz-adv-x="598" 
d="M557 0h-165l-26 60c-33 -44 -84 -72 -155 -72c-115 0 -175 66 -175 176v367h209v-326c0 -38 12 -57 44 -57c25 0 50 14 61 27v356h207v-531zM152 592v124h295v-124h-295z" />
    <glyph glyph-name="Ubreve" unicode="&#x16c;" horiz-adv-x="701" 
d="M40 720h217v-439c0 -72 38 -102 93 -102c58 0 95 29 95 102v439h216v-440c0 -197 -117 -292 -311 -292c-200 0 -310 95 -310 292v440zM352 859c43 0 54 18 61 56l116 -16c-8 -84 -65 -137 -177 -137c-114 0 -169 47 -177 136l116 17c7 -39 22 -56 61 -56z" />
    <glyph glyph-name="ubreve" unicode="&#x16d;" horiz-adv-x="598" 
d="M557 0h-165l-26 60c-33 -44 -84 -72 -155 -72c-115 0 -175 66 -175 176v367h209v-326c0 -38 12 -57 44 -57c25 0 50 14 61 27v356h207v-531zM297 684c43 0 55 22 61 63l113 -16c-9 -90 -62 -144 -174 -144c-114 0 -164 49 -177 144l116 17c7 -43 22 -64 61 -64z" />
    <glyph glyph-name="Uring" unicode="&#x16e;" horiz-adv-x="701" 
d="M40 720h217v-439c0 -72 38 -102 93 -102c58 0 95 29 95 102v439h216v-440c0 -197 -117 -292 -311 -292c-200 0 -310 95 -310 292v440zM325 846c0 -24 13 -36 37 -36c20 0 35 14 35 36c0 23 -14 35 -35 35c-24 0 -37 -14 -37 -35zM245 841c0 70 51 109 117 109
c64 0 115 -36 115 -104c0 -66 -51 -106 -115 -106c-71 0 -117 35 -117 101z" />
    <glyph glyph-name="uring" unicode="&#x16f;" horiz-adv-x="598" 
d="M557 0h-165l-26 60c-33 -44 -84 -72 -155 -72c-115 0 -175 66 -175 176v367h209v-326c0 -38 12 -57 44 -57c25 0 50 14 61 27v356h207v-531zM261 682c0 -24 13 -36 37 -36c20 0 35 14 35 36c0 23 -14 35 -35 35c-24 0 -37 -14 -37 -35zM181 677c0 70 51 109 117 109
c64 0 115 -36 115 -104c0 -66 -51 -106 -115 -106c-71 0 -117 35 -117 101z" />
    <glyph glyph-name="Uhungarumlaut" unicode="&#x170;" horiz-adv-x="701" 
d="M40 720h217v-439c0 -72 38 -102 93 -102c58 0 95 29 95 102v439h216v-440c0 -197 -117 -292 -311 -292c-200 0 -310 95 -310 292v440zM300 984l109 -86l-149 -150l-87 65zM508 967l102 -86l-145 -135l-83 68z" />
    <glyph glyph-name="uhungarumlaut" unicode="&#x171;" horiz-adv-x="598" 
d="M557 0h-165l-26 60c-33 -44 -84 -72 -155 -72c-115 0 -175 66 -175 176v367h209v-326c0 -38 12 -57 44 -57c25 0 50 14 61 27v356h207v-531zM222 804l122 -65l-121 -174l-97 49zM415 790l115 -67l-119 -158l-94 52z" />
    <glyph glyph-name="Uogonek" unicode="&#x172;" horiz-adv-x="703" 
d="M41 720h217v-439c0 -72 38 -102 93 -102c58 0 95 29 95 102v439h216v-440c0 -143 -57 -210 -162 -274c-52 -32 -84 -82 -84 -114c0 -19 9 -28 26 -28c15 0 29 3 50 10l23 -83c-28 -15 -78 -33 -128 -33c-84 0 -111 45 -111 95s30 94 73 135c-199 1 -308 95 -308 292v440z
" />
    <glyph glyph-name="uogonek" unicode="&#x173;" horiz-adv-x="598" 
d="M557 0c-56 -38 -90 -78 -90 -108c0 -19 9 -28 26 -28c15 0 29 3 50 10l23 -83c-28 -15 -78 -33 -128 -33c-84 0 -111 45 -111 95c0 54 35 105 93 147h-28l-26 60c-33 -44 -84 -72 -155 -72c-115 0 -175 66 -175 176v367h209v-326c0 -38 12 -57 44 -57c25 0 50 14 61 27
v356h207v-531z" />
    <glyph glyph-name="Wcircumflex" unicode="&#x174;" horiz-adv-x="931" 
d="M147 0l-151 720h212l76 -433l87 433h192l83 -435l76 435h213l-151 -720h-229l-88 396h-6l-87 -396h-227zM413 922h99l115 -104l-77 -65l-88 55l-89 -55l-76 66z" />
    <glyph glyph-name="wcircumflex" unicode="&#x175;" horiz-adv-x="824" 
d="M624 531h206l-153 -531h-213l-48 275h-5l-51 -275h-216l-142 531h206l59 -305l51 305h196l52 -305zM359 780h102l131 -149l-88 -64l-94 77l-94 -77l-90 66z" />
    <glyph glyph-name="Wgrave" unicode="&#x1e80;" horiz-adv-x="931" 
d="M147 0l-151 720h212l76 -433l87 433h192l83 -435l76 435h213l-151 -720h-229l-88 396h-6l-87 -396h-227zM396 962l195 -122l-55 -92l-208 92z" />
    <glyph glyph-name="wgrave" unicode="&#x1e81;" horiz-adv-x="824" 
d="M624 531h206l-153 -531h-213l-48 275h-5l-51 -275h-216l-142 531h206l59 -305l51 305h196l52 -305zM360 816l180 -158l-79 -93l-194 139z" />
    <glyph glyph-name="Wacute" unicode="&#x1e82;" horiz-adv-x="931" 
d="M147 0l-151 720h212l76 -433l87 433h192l83 -435l76 435h213l-151 -720h-229l-88 396h-6l-87 -396h-227zM328 840l195 122l68 -122l-208 -92z" />
    <glyph glyph-name="wacute" unicode="&#x1e83;" horiz-adv-x="824" 
d="M624 531h206l-153 -531h-213l-48 275h-5l-51 -275h-216l-142 531h206l59 -305l51 305h196l52 -305zM266 656l178 160l93 -112l-194 -139z" />
    <glyph glyph-name="Wdieresis" unicode="&#x1e84;" horiz-adv-x="931" 
d="M147 0l-151 720h212l76 -433l87 433h192l83 -435l76 435h213l-151 -720h-229l-88 396h-6l-87 -396h-227zM485 846c0 47 35 83 96 83c67 0 96 -36 96 -83s-38 -80 -95 -80c-63 0 -97 31 -97 80zM251 846c0 47 36 83 96 83c67 0 96 -36 96 -83s-37 -80 -95 -80
c-63 0 -97 31 -97 80z" />
    <glyph glyph-name="wdieresis" unicode="&#x1e85;" horiz-adv-x="824" 
d="M624 531h206l-153 -531h-213l-48 275h-5l-51 -275h-216l-142 531h206l59 -305l51 305h196l52 -305zM434 666c0 47 35 83 96 83c67 0 96 -36 96 -83s-38 -80 -95 -80c-63 0 -97 31 -97 80zM200 666c0 47 36 83 96 83c67 0 96 -36 96 -83s-37 -80 -95 -80
c-63 0 -97 31 -97 80z" />
    <glyph glyph-name="Ygrave" unicode="&#x1ef2;" horiz-adv-x="711" 
d="M242 0v251l-246 469h236l121 -275l120 275h242l-257 -467v-253h-216zM287 962l195 -122l-55 -92l-208 92z" />
    <glyph glyph-name="ygrave" unicode="&#x1ef3;" horiz-adv-x="562" 
d="M360 531h210l-185 -529c-54 -153 -105 -211 -239 -211c-51 0 -91 7 -117 13l19 148c17 -2 47 -5 73 -5c32 0 51 12 61 45l4 13l-183 526h211l72 -328h4zM219 816l180 -158l-79 -93l-194 139z" />
    <glyph glyph-name="Ycircumflex" unicode="&#x176;" horiz-adv-x="711" 
d="M242 0v251l-246 469h236l121 -275l120 275h242l-257 -467v-253h-216zM304 922h99l115 -104l-77 -65l-88 55l-89 -55l-76 66z" />
    <glyph glyph-name="ycircumflex" unicode="&#x177;" horiz-adv-x="562" 
d="M360 531h210l-185 -529c-54 -153 -105 -211 -239 -211c-51 0 -91 7 -117 13l19 148c17 -2 47 -5 73 -5c32 0 51 12 61 45l4 13l-183 526h211l72 -328h4zM236 780h102l131 -149l-88 -64l-94 77l-94 -77l-90 66z" />
    <glyph glyph-name="Ydieresis" unicode="&#x178;" horiz-adv-x="711" 
d="M242 0v251l-246 469h236l121 -275l120 275h242l-257 -467v-253h-216zM376 846c0 47 35 83 96 83c67 0 96 -36 96 -83s-38 -80 -95 -80c-63 0 -97 31 -97 80zM142 846c0 47 36 83 96 83c67 0 96 -36 96 -83s-37 -80 -95 -80c-63 0 -97 31 -97 80z" />
    <glyph glyph-name="Zacute" unicode="&#x179;" horiz-adv-x="651" 
d="M24 0v135l280 396h-271v189h598v-85l-313 -450h312v-185h-606zM199 840l195 122l68 -122l-208 -92z" />
    <glyph glyph-name="zacute" unicode="&#x17a;" horiz-adv-x="487" 
d="M26 0v124l179 256h-175v151h445v-80l-205 -301h203v-150h-447zM123 656l178 160l93 -112l-194 -139z" />
    <glyph glyph-name="Zdotaccent" unicode="&#x17b;" horiz-adv-x="651" 
d="M24 0v135l280 396h-271v189h598v-85l-313 -450h312v-185h-606zM213 844c0 60 49 90 112 90c66 0 114 -30 114 -90c0 -59 -47 -88 -114 -88c-62 0 -112 29 -112 88z" />
    <glyph glyph-name="zdotaccent" unicode="&#x17c;" horiz-adv-x="487" 
d="M26 0v124l179 256h-175v151h445v-80l-205 -301h203v-150h-447zM137 665c0 60 49 90 112 90c66 0 114 -30 114 -90c0 -59 -47 -88 -114 -88c-62 0 -112 29 -112 88z" />
    <glyph glyph-name="Zcaron" unicode="&#x17d;" horiz-adv-x="651" 
d="M24 0v135l280 396h-271v189h598v-85l-313 -450h312v-185h-606zM375 759h-99l-115 104l77 65l88 -55l89 55l76 -66z" />
    <glyph glyph-name="zcaron" unicode="&#x17e;" horiz-adv-x="487" 
d="M26 0v124l179 256h-175v151h445v-80l-205 -301h203v-150h-447zM300 579h-102l-131 149l88 64l94 -77l94 77l90 -66z" />
    <glyph glyph-name="Jcircumflex.alt" horiz-adv-x="430" 
d="M390 720v-474c0 -174 -89 -246 -242 -246h-134v191h76c69 0 83 19 83 77v452h217zM232 922h99l115 -104l-77 -65l-88 55l-89 -55l-76 66z" />
    <glyph glyph-name="jcircumflex.alt" horiz-adv-x="290" 
d="M249 531v-534c0 -139 -57 -201 -219 -201h-74v168h34c44 0 51 13 51 46v521h208zM96 780h102l131 -149l-88 -64l-94 77l-94 -77l-90 66z" />
    <glyph glyph-name="ygrave.alt" horiz-adv-x="575" 
d="M101 -200v156h74c29 0 32 10 32 25v37l-197 514h234l59 -305h4l51 305h231l-178 -492v-67c0 -115 -60 -173 -185 -173h-125zM247 816l180 -158l-79 -93l-194 139z" />
    <glyph glyph-name="ycircumflex.alt" horiz-adv-x="575" 
d="M101 -200v156h74c29 0 32 10 32 25v37l-197 514h234l59 -305h4l51 305h231l-178 -492v-67c0 -115 -60 -173 -185 -173h-125zM251 780h102l131 -149l-88 -64l-94 77l-94 -77l-90 66z" />
    <glyph glyph-name="ydieresis.alt" horiz-adv-x="575" 
d="M101 -200v156h74c29 0 32 10 32 25v37l-197 514h234l59 -305h4l51 305h231l-178 -492v-67c0 -115 -60 -173 -185 -173h-125zM329 666c0 47 35 83 96 83c67 0 96 -36 96 -83s-38 -80 -95 -80c-63 0 -97 31 -97 80zM95 666c0 47 36 83 96 83c67 0 96 -36 96 -83
s-37 -80 -95 -80c-63 0 -97 31 -97 80z" />
    <glyph glyph-name="yacute.alt" horiz-adv-x="575" 
d="M101 -200v156h74c29 0 32 10 32 25v37l-197 514h234l59 -305h4l51 305h231l-178 -492v-67c0 -115 -60 -173 -185 -173h-125zM182 646l178 160l93 -112l-194 -139z" />
    <glyph glyph-name="agrave.alt" horiz-adv-x="626" 
d="M408 0l-14 61c-26 -36 -78 -73 -157 -73c-141 0 -215 98 -215 276c0 194 113 279 233 279c46 0 105 -17 150 -62l14 50h170v-531h-181zM381 173v180c-15 16 -39 28 -68 28c-47 0 -71 -38 -71 -115c0 -70 17 -119 71 -119c28 0 53 10 68 26zM281 816l180 -158l-79 -93
l-194 139z" />
    <glyph glyph-name="a.alt" horiz-adv-x="626" 
d="M408 0l-14 61c-26 -36 -78 -73 -157 -73c-141 0 -215 98 -215 276c0 194 113 279 233 279c46 0 105 -17 150 -62l14 50h170v-531h-181zM381 173v180c-15 16 -39 28 -68 28c-47 0 -71 -38 -71 -115c0 -70 17 -119 71 -119c28 0 53 10 68 26z" />
    <glyph glyph-name="aacute.alt" horiz-adv-x="626" 
d="M408 0l-14 61c-26 -36 -78 -73 -157 -73c-141 0 -215 98 -215 276c0 194 113 279 233 279c46 0 105 -17 150 -62l14 50h170v-531h-181zM381 173v180c-15 16 -39 28 -68 28c-47 0 -71 -38 -71 -115c0 -70 17 -119 71 -119c28 0 53 10 68 26zM223 656l178 160l93 -112
l-194 -139z" />
    <glyph glyph-name="acircumflex.alt" horiz-adv-x="626" 
d="M408 0l-14 61c-26 -36 -78 -73 -157 -73c-141 0 -215 98 -215 276c0 194 113 279 233 279c46 0 105 -17 150 -62l14 50h170v-531h-181zM381 173v180c-15 16 -39 28 -68 28c-47 0 -71 -38 -71 -115c0 -70 17 -119 71 -119c28 0 53 10 68 26zM277 780h102l131 -149l-88 -64
l-94 77l-94 -77l-90 66z" />
    <glyph glyph-name="atilde.alt" horiz-adv-x="626" 
d="M408 0l-14 61c-26 -36 -78 -73 -157 -73c-141 0 -215 98 -215 276c0 194 113 279 233 279c46 0 105 -17 150 -62l14 50h170v-531h-181zM381 173v180c-15 16 -39 28 -68 28c-47 0 -71 -38 -71 -115c0 -70 17 -119 71 -119c28 0 53 10 68 26zM433 754l95 -42
c-15 -69 -51 -121 -111 -121c-58 0 -102 29 -129 29c-17 0 -28 -6 -42 -35l-94 39c16 65 53 129 109 129c54 0 98 -29 127 -29c18 0 32 4 45 30z" />
    <glyph glyph-name="adieresis.alt" horiz-adv-x="626" 
d="M408 0l-14 61c-26 -36 -78 -73 -157 -73c-141 0 -215 98 -215 276c0 194 113 279 233 279c46 0 105 -17 150 -62l14 50h170v-531h-181zM381 173v180c-15 16 -39 28 -68 28c-47 0 -71 -38 -71 -115c0 -70 17 -119 71 -119c28 0 53 10 68 26zM355 666c0 47 35 83 96 83
c67 0 96 -36 96 -83s-38 -80 -95 -80c-63 0 -97 31 -97 80zM121 666c0 47 36 83 96 83c67 0 96 -36 96 -83s-37 -80 -95 -80c-63 0 -97 31 -97 80z" />
    <glyph glyph-name="aring.alt" horiz-adv-x="626" 
d="M408 0l-14 61c-26 -36 -78 -73 -157 -73c-141 0 -215 98 -215 276c0 194 113 279 233 279c46 0 105 -17 150 -62l14 50h170v-531h-181zM381 173v180c-15 16 -39 28 -68 28c-47 0 -71 -38 -71 -115c0 -70 17 -119 71 -119c28 0 53 10 68 26zM300 682c0 -24 13 -36 37 -36
c20 0 35 14 35 36c0 23 -14 35 -35 35c-24 0 -37 -14 -37 -35zM220 677c0 70 51 109 117 109c64 0 115 -36 115 -104c0 -66 -51 -106 -115 -106c-71 0 -117 35 -117 101z" />
    <glyph glyph-name="amacron.alt" horiz-adv-x="626" 
d="M408 0l-14 61c-26 -36 -78 -73 -157 -73c-141 0 -215 98 -215 276c0 194 113 279 233 279c46 0 105 -17 150 -62l14 50h170v-531h-181zM381 173v180c-15 16 -39 28 -68 28c-47 0 -71 -38 -71 -115c0 -70 17 -119 71 -119c28 0 53 10 68 26zM193 592v124h295v-124h-295z
" />
    <glyph glyph-name="abreve.alt" horiz-adv-x="626" 
d="M408 0l-14 61c-26 -36 -78 -73 -157 -73c-141 0 -215 98 -215 276c0 194 113 279 233 279c46 0 105 -17 150 -62l14 50h170v-531h-181zM381 173v180c-15 16 -39 28 -68 28c-47 0 -71 -38 -71 -115c0 -70 17 -119 71 -119c28 0 53 10 68 26zM339 684c43 0 55 22 61 63
l113 -16c-9 -90 -62 -144 -174 -144c-114 0 -164 49 -177 144l116 17c7 -43 22 -64 61 -64z" />
    <glyph glyph-name="aogonek.alt" horiz-adv-x="626" 
d="M408 0l-14 61c-26 -36 -78 -73 -157 -73c-141 0 -215 98 -215 276c0 194 113 279 233 279c46 0 105 -17 150 -62l14 50h170v-531c-51 -41 -82 -77 -82 -108c0 -19 9 -28 26 -28c15 0 29 3 50 10l23 -83c-28 -15 -78 -33 -128 -33c-84 0 -111 45 -111 95
c0 54 36 102 86 147h-45zM381 173v180c-15 16 -39 28 -68 28c-47 0 -71 -38 -71 -115c0 -70 17 -119 71 -119c28 0 53 10 68 26z" />
    <glyph glyph-name="gcircumflex.alt" horiz-adv-x="628" 
d="M589 531v-480c0 -198 -96 -251 -272 -251h-189v150h150c87 0 111 13 111 83v35c-36 -46 -92 -66 -147 -66c-126 0 -220 74 -220 257c0 180 85 284 231 284c66 0 118 -28 152 -62l15 50h169zM381 187v165c-15 17 -38 32 -67 32c-51 0 -72 -45 -72 -116
c0 -75 22 -107 73 -107c28 0 50 11 66 26zM278 780h102l131 -149l-88 -64l-94 77l-94 -77l-90 66z" />
    <glyph glyph-name="g.alt" horiz-adv-x="628" 
d="M589 531v-480c0 -198 -96 -251 -272 -251h-189v150h150c87 0 111 13 111 83v35c-36 -46 -92 -66 -147 -66c-126 0 -220 74 -220 257c0 180 85 284 231 284c66 0 118 -28 152 -62l15 50h169zM381 187v165c-15 17 -38 32 -67 32c-51 0 -72 -45 -72 -116
c0 -75 22 -107 73 -107c28 0 50 11 66 26z" />
    <glyph glyph-name="gbreve.alt" horiz-adv-x="628" 
d="M589 531v-480c0 -198 -96 -251 -272 -251h-189v150h150c87 0 111 13 111 83v35c-36 -46 -92 -66 -147 -66c-126 0 -220 74 -220 257c0 180 85 284 231 284c66 0 118 -28 152 -62l15 50h169zM381 187v165c-15 17 -38 32 -67 32c-51 0 -72 -45 -72 -116
c0 -75 22 -107 73 -107c28 0 50 11 66 26zM334 684c43 0 55 22 61 63l113 -16c-9 -90 -62 -144 -174 -144c-114 0 -164 49 -177 144l116 17c7 -43 22 -64 61 -64z" />
    <glyph glyph-name="gdotaccent.alt" horiz-adv-x="628" 
d="M589 531v-480c0 -198 -96 -251 -272 -251h-189v150h150c87 0 111 13 111 83v35c-36 -46 -92 -66 -147 -66c-126 0 -220 74 -220 257c0 180 85 284 231 284c66 0 118 -28 152 -62l15 50h169zM381 187v165c-15 17 -38 32 -67 32c-51 0 -72 -45 -72 -116
c0 -75 22 -107 73 -107c28 0 50 11 66 26zM218 665c0 60 49 90 112 90c66 0 114 -30 114 -90c0 -59 -47 -88 -114 -88c-62 0 -112 29 -112 88z" />
    <glyph glyph-name="gcommaaccent.alt" horiz-adv-x="628" 
d="M589 531v-480c0 -198 -96 -251 -272 -251h-189v150h150c87 0 111 13 111 83v35c-36 -46 -92 -66 -147 -66c-126 0 -220 74 -220 257c0 180 85 284 231 284c66 0 118 -28 152 -62l15 50h169zM381 187v165c-15 17 -38 32 -67 32c-51 0 -72 -45 -72 -116
c0 -75 22 -107 73 -107c28 0 50 11 66 26zM444 766l-46 -200l-157 39l74 195z" />
    <glyph glyph-name="longs" unicode="&#x17f;" horiz-adv-x="368" 
d="M77 0v384h-59v120l59 22v22c0 121 59 184 187 184c44 0 78 -4 114 -14l-10 -133c-15 5 -32 8 -46 8c-26 0 -37 -15 -37 -37v-556h-208z" />
    <glyph glyph-name="dotlessj" unicode="&#x237;" horiz-adv-x="290" 
d="M249 531v-557c0 -121 -57 -183 -185 -183c-43 0 -80 5 -111 14l11 132c14 -3 26 -4 39 -4c27 0 38 9 38 42v556h208z" />
    <glyph glyph-name="perthousand" unicode="&#x2030;" horiz-adv-x="1147" 
d="M497 164c0 116 87 182 190 182c46 0 92 -17 123 -47c27 25 71 47 130 47c92 0 177 -63 177 -177s-81 -181 -179 -181c-55 0 -100 19 -130 45c-33 -30 -76 -45 -128 -45c-99 0 -183 56 -183 176zM156 0l439 720h156l-442 -720h-153zM30 554c0 116 88 180 194 180
c104 0 190 -61 190 -175s-86 -181 -190 -181c-106 0 -194 56 -194 176zM639 162c0 -30 18 -54 52 -54c30 0 49 26 49 55s-18 52 -49 52c-34 0 -52 -23 -52 -53zM875 162c0 -30 18 -54 52 -54c30 0 49 26 49 55s-18 52 -49 52c-34 0 -52 -23 -52 -53zM172 552
c0 -30 18 -54 52 -54c30 0 49 26 49 55s-18 52 -49 52c-34 0 -52 -23 -52 -53z" />
    <glyph glyph-name="percent" unicode="%" horiz-adv-x="1063" 
d="M754 185c0 -40 23 -68 67 -68c42 0 67 31 67 70c0 38 -23 70 -67 70s-67 -32 -67 -72zM606 187c0 129 97 203 215 203c117 0 213 -71 213 -199c0 -127 -96 -203 -213 -203c-118 0 -215 65 -215 199zM178 515c0 -40 23 -68 67 -68c42 0 67 31 67 70c0 38 -23 70 -67 70
s-67 -32 -67 -72zM30 517c0 129 97 203 215 203c117 0 213 -71 213 -199c0 -127 -96 -203 -213 -203c-118 0 -215 65 -215 199zM239 0l439 720h156l-442 -720h-153z" />
    <glyph glyph-name="fraction" unicode="&#x2044;" horiz-adv-x="137" 
d="M-234 0l445 720h153l-443 -720h-155z" />
    <glyph glyph-name="zerosuperior" unicode="&#x2070;" horiz-adv-x="419" 
d="M256 591c0 68 -22 85 -44 85c-25 0 -47 -19 -47 -84c0 -59 17 -82 45 -82c32 0 46 38 46 81zM16 592c0 119 68 197 196 197c130 0 191 -76 191 -194c0 -124 -72 -202 -194 -202c-123 0 -193 66 -193 199z" />
    <glyph glyph-name="onesuperior" unicode="&#xb9;" horiz-adv-x="317" 
d="M278 400h-165v214h-80l-13 104c48 12 98 33 127 64h131v-382z" />
    <glyph glyph-name="twosuperior" unicode="&#xb2;" horiz-adv-x="379" 
d="M31 400v94l104 74c31 22 59 41 59 66c0 17 -15 26 -34 26c-25 0 -67 -20 -94 -37l-57 90c47 41 117 76 200 76c81 0 151 -38 151 -114c0 -51 -25 -88 -73 -123l-62 -46h133v-106h-327z" />
    <glyph glyph-name="threesuperior" unicode="&#xb3;" horiz-adv-x="367" 
d="M0 445l43 84c32 -18 73 -31 107 -31c29 0 44 6 44 25c0 18 -10 26 -49 26c-14 0 -35 -1 -46 -3v90c45 1 76 7 76 29c0 15 -10 19 -30 19c-26 0 -65 -13 -91 -25l-38 86c44 24 99 44 171 44c94 0 141 -36 141 -97c0 -45 -30 -75 -80 -90c61 -6 95 -39 95 -90
c0 -83 -81 -119 -178 -119c-62 0 -122 17 -165 52z" />
    <glyph glyph-name="foursuperior" unicode="&#x2074;" horiz-adv-x="417" 
d="M216 682l-78 -124h78v124zM216 400v58h-192v100l142 224h188v-224h44v-100h-44v-58h-138z" />
    <glyph glyph-name="fivesuperior" unicode="&#x2075;" horiz-adv-x="364" 
d="M38 546l17 236h267l-7 -114h-164l-5 -47c14 6 41 15 75 15c72 0 124 -33 124 -110c0 -87 -76 -133 -171 -133c-77 0 -128 27 -166 57l44 79c30 -17 75 -30 101 -30c31 0 52 11 52 36c0 20 -12 28 -31 28c-20 0 -36 -11 -41 -17h-95z" />
    <glyph glyph-name="sixsuperior" unicode="&#x2076;" horiz-adv-x="392" 
d="M26 575c0 105 57 214 201 214c48 0 96 -11 131 -26l-26 -97c-28 12 -54 17 -80 17c-48 0 -78 -20 -82 -72c28 18 58 29 93 29c76 0 111 -47 111 -110c0 -102 -83 -137 -167 -137c-134 0 -181 70 -181 182zM210 554c-15 0 -27 -4 -38 -10c0 -42 11 -61 35 -61
c21 0 31 15 31 37c0 25 -10 34 -28 34z" />
    <glyph glyph-name="sevensuperior" unicode="&#x2077;" horiz-adv-x="358" 
d="M346 702l-121 -302h-171v14l116 248h-152v120h328v-80z" />
    <glyph glyph-name="eightsuperior" unicode="&#x2078;" horiz-adv-x="386" 
d="M142 514c0 -22 17 -33 45 -33c20 0 35 10 35 29c0 22 -28 31 -57 41c-11 -9 -23 -20 -23 -37zM169 680c0 -15 16 -27 44 -37c10 9 20 23 20 38c0 17 -13 28 -32 28c-20 0 -32 -12 -32 -29zM15 502c0 57 40 79 68 95c-29 13 -55 41 -55 79c0 69 57 113 172 113
c105 0 158 -38 158 -98c0 -44 -27 -75 -51 -89c39 -21 65 -39 65 -89c0 -80 -84 -120 -189 -120c-104 0 -168 38 -168 109z" />
    <glyph glyph-name="ninesuperior" unicode="&#x2079;" horiz-adv-x="396" 
d="M372 607c0 -110 -69 -214 -205 -214c-56 0 -97 10 -127 26l26 95c28 -12 54 -17 80 -17c48 0 78 22 82 74c-26 -20 -58 -31 -93 -31c-76 0 -110 47 -110 110c0 102 87 139 171 139c134 0 176 -70 176 -182zM188 624c15 0 29 7 37 14c1 42 -10 61 -34 61
c-21 0 -30 -17 -30 -39c0 -27 9 -36 27 -36z" />
    <glyph glyph-name="zeroinferior" unicode="&#x2080;" horiz-adv-x="419" 
d="M256 95c0 68 -22 85 -44 85c-25 0 -47 -19 -47 -84c0 -59 17 -82 45 -82c32 0 46 38 46 81zM16 96c0 119 68 197 196 197c130 0 191 -76 191 -194c0 -124 -72 -202 -194 -202c-123 0 -193 66 -193 199z" />
    <glyph glyph-name="oneinferior" unicode="&#x2081;" horiz-adv-x="311" 
d="M272 -96h-165v214h-80l-13 104c48 12 98 33 127 64h131v-382z" />
    <glyph glyph-name="twoinferior" unicode="&#x2082;" horiz-adv-x="379" 
d="M29 -96v94l104 74c31 22 59 41 59 66c0 17 -15 26 -34 26c-25 0 -67 -20 -94 -37l-57 90c47 41 117 76 200 76c81 0 151 -38 151 -114c0 -51 -25 -88 -73 -123l-62 -46h133v-106h-327z" />
    <glyph glyph-name="threeinferior" unicode="&#x2083;" horiz-adv-x="367" 
d="M0 -51l43 84c32 -18 73 -31 107 -31c29 0 44 6 44 25c0 18 -10 26 -49 26c-14 0 -35 -1 -46 -3v90c45 1 76 7 76 29c0 15 -10 19 -30 19c-26 0 -65 -13 -91 -25l-38 86c44 24 99 44 171 44c94 0 141 -36 141 -97c0 -45 -30 -75 -80 -90c61 -6 95 -39 95 -90
c0 -83 -81 -119 -178 -119c-62 0 -122 17 -165 52z" />
    <glyph glyph-name="fourinferior" unicode="&#x2084;" horiz-adv-x="417" 
d="M214 186l-78 -124h78v124zM214 -96v58h-192v100l142 224h188v-224h44v-100h-44v-58h-138z" />
    <glyph glyph-name="fiveinferior" unicode="&#x2085;" horiz-adv-x="364" 
d="M43 50l17 236h267l-7 -114h-164l-5 -47c14 6 41 15 75 15c72 0 124 -33 124 -110c0 -87 -76 -133 -171 -133c-77 0 -128 27 -166 57l44 79c30 -17 75 -30 101 -30c31 0 52 11 52 36c0 20 -12 28 -31 28c-20 0 -36 -11 -41 -17h-95z" />
    <glyph glyph-name="sixinferior" unicode="&#x2086;" horiz-adv-x="392" 
d="M26 79c0 105 57 214 201 214c48 0 96 -11 131 -26l-26 -97c-28 12 -54 17 -80 17c-48 0 -78 -20 -82 -72c28 18 58 29 93 29c76 0 111 -47 111 -110c0 -102 -83 -137 -167 -137c-134 0 -181 70 -181 182zM210 58c-15 0 -27 -4 -38 -10c0 -42 11 -61 35 -61
c21 0 31 15 31 37c0 25 -10 34 -28 34z" />
    <glyph glyph-name="seveninferior" unicode="&#x2087;" horiz-adv-x="358" 
d="M346 206l-121 -302h-171v14l116 248h-152v120h328v-80z" />
    <glyph glyph-name="eightinferior" unicode="&#x2088;" horiz-adv-x="386" 
d="M142 18c0 -22 17 -33 45 -33c20 0 35 10 35 29c0 22 -28 31 -57 41c-11 -9 -23 -20 -23 -37zM169 184c0 -15 16 -27 44 -37c10 9 20 23 20 38c0 17 -13 28 -32 28c-20 0 -32 -12 -32 -29zM15 6c0 57 40 79 68 95c-29 13 -55 41 -55 79c0 69 57 113 172 113
c105 0 158 -38 158 -98c0 -44 -27 -75 -51 -89c39 -21 65 -39 65 -89c0 -80 -84 -120 -189 -120c-104 0 -168 38 -168 109z" />
    <glyph glyph-name="nineinferior" unicode="&#x2089;" horiz-adv-x="396" 
d="M372 111c0 -110 -69 -214 -205 -214c-56 0 -97 10 -127 26l26 95c28 -12 54 -17 80 -17c48 0 78 22 82 74c-26 -20 -58 -31 -93 -31c-76 0 -110 47 -110 110c0 102 87 139 171 139c134 0 176 -70 176 -182zM188 128c15 0 29 7 37 14c1 42 -10 61 -34 61
c-21 0 -30 -17 -30 -39c0 -27 9 -36 27 -36z" />
    <glyph glyph-name="zero.num" horiz-adv-x="419" 
d="M256 541c0 68 -22 85 -44 85c-25 0 -47 -19 -47 -84c0 -59 17 -82 45 -82c32 0 46 38 46 81zM16 542c0 119 68 197 196 197c130 0 191 -76 191 -194c0 -124 -72 -202 -194 -202c-123 0 -193 66 -193 199z" />
    <glyph glyph-name="one.num" horiz-adv-x="311" 
d="M272 350h-165v214h-80l-13 104c48 12 98 33 127 64h131v-382z" />
    <glyph glyph-name="two.num" horiz-adv-x="379" 
d="M29 350v94l104 74c31 22 59 41 59 66c0 17 -15 26 -34 26c-25 0 -67 -20 -94 -37l-57 90c47 41 117 76 200 76c81 0 151 -38 151 -114c0 -51 -25 -88 -73 -123l-62 -46h133v-106h-327z" />
    <glyph glyph-name="three.num" horiz-adv-x="367" 
d="M0 395l43 84c32 -18 73 -31 107 -31c29 0 44 6 44 25c0 18 -10 26 -49 26c-14 0 -35 -1 -46 -3v90c45 1 76 7 76 29c0 15 -10 19 -30 19c-26 0 -65 -13 -91 -25l-38 86c44 24 99 44 171 44c94 0 141 -36 141 -97c0 -45 -30 -75 -80 -90c61 -6 95 -39 95 -90
c0 -83 -81 -119 -178 -119c-62 0 -122 17 -165 52z" />
    <glyph glyph-name="four.num" horiz-adv-x="417" 
d="M214 632l-78 -124h78v124zM214 350v58h-192v100l142 224h188v-224h44v-100h-44v-58h-138z" />
    <glyph glyph-name="five.num" horiz-adv-x="364" 
d="M43 496l17 236h267l-7 -114h-164l-5 -47c14 6 41 15 75 15c72 0 124 -33 124 -110c0 -87 -76 -133 -171 -133c-77 0 -128 27 -166 57l44 79c30 -17 75 -30 101 -30c31 0 52 11 52 36c0 20 -12 28 -31 28c-20 0 -36 -11 -41 -17h-95z" />
    <glyph glyph-name="six.num" horiz-adv-x="392" 
d="M26 525c0 105 57 214 201 214c48 0 96 -11 131 -26l-26 -97c-28 12 -54 17 -80 17c-48 0 -78 -20 -82 -72c28 18 58 29 93 29c76 0 111 -47 111 -110c0 -102 -83 -137 -167 -137c-134 0 -181 70 -181 182zM210 504c-15 0 -27 -4 -38 -10c0 -42 11 -61 35 -61
c21 0 31 15 31 37c0 25 -10 34 -28 34z" />
    <glyph glyph-name="seven.num" horiz-adv-x="358" 
d="M346 652l-121 -302h-171v14l116 248h-152v120h328v-80z" />
    <glyph glyph-name="eight.num" horiz-adv-x="386" 
d="M142 464c0 -22 17 -33 45 -33c20 0 35 10 35 29c0 22 -28 31 -57 41c-11 -9 -23 -20 -23 -37zM169 630c0 -15 16 -27 44 -37c10 9 20 23 20 38c0 17 -13 28 -32 28c-20 0 -32 -12 -32 -29zM15 452c0 57 40 79 68 95c-29 13 -55 41 -55 79c0 69 57 113 172 113
c105 0 158 -38 158 -98c0 -44 -27 -75 -51 -89c39 -21 65 -39 65 -89c0 -80 -84 -120 -189 -120c-104 0 -168 38 -168 109z" />
    <glyph glyph-name="nine.num" horiz-adv-x="396" 
d="M372 557c0 -110 -69 -214 -205 -214c-56 0 -97 10 -127 26l26 95c28 -12 54 -17 80 -17c48 0 78 22 82 74c-26 -20 -58 -31 -93 -31c-76 0 -110 47 -110 110c0 102 87 139 171 139c134 0 176 -70 176 -182zM188 574c15 0 29 7 37 14c1 42 -10 61 -34 61
c-21 0 -30 -17 -30 -39c0 -27 9 -36 27 -36z" />
    <glyph glyph-name="zero.denom" horiz-adv-x="419" 
d="M256 191c0 68 -22 85 -44 85c-25 0 -47 -19 -47 -84c0 -59 17 -82 45 -82c32 0 46 38 46 81zM16 192c0 119 68 197 196 197c130 0 191 -76 191 -194c0 -124 -72 -202 -194 -202c-123 0 -193 66 -193 199z" />
    <glyph glyph-name="one.denom" horiz-adv-x="311" 
d="M272 0h-165v214h-80l-13 104c48 12 98 33 127 64h131v-382z" />
    <glyph glyph-name="two.denom" horiz-adv-x="379" 
d="M29 0v94l104 74c31 22 59 41 59 66c0 17 -15 26 -34 26c-25 0 -67 -20 -94 -37l-57 90c47 41 117 76 200 76c81 0 151 -38 151 -114c0 -51 -25 -88 -73 -123l-62 -46h133v-106h-327z" />
    <glyph glyph-name="three.denom" horiz-adv-x="367" 
d="M0 45l43 84c32 -18 73 -31 107 -31c29 0 44 6 44 25c0 18 -10 26 -49 26c-14 0 -35 -1 -46 -3v90c45 1 76 7 76 29c0 15 -10 19 -30 19c-26 0 -65 -13 -91 -25l-38 86c44 24 99 44 171 44c94 0 141 -36 141 -97c0 -45 -30 -75 -80 -90c61 -6 95 -39 95 -90
c0 -83 -81 -119 -178 -119c-62 0 -122 17 -165 52z" />
    <glyph glyph-name="four.denom" horiz-adv-x="417" 
d="M214 282l-78 -124h78v124zM214 0v58h-192v100l142 224h188v-224h44v-100h-44v-58h-138z" />
    <glyph glyph-name="five.denom" horiz-adv-x="364" 
d="M43 146l17 236h267l-7 -114h-164l-5 -47c14 6 41 15 75 15c72 0 124 -33 124 -110c0 -87 -76 -133 -171 -133c-77 0 -128 27 -166 57l44 79c30 -17 75 -30 101 -30c31 0 52 11 52 36c0 20 -12 28 -31 28c-20 0 -36 -11 -41 -17h-95z" />
    <glyph glyph-name="six.denom" horiz-adv-x="392" 
d="M26 175c0 105 57 214 201 214c48 0 96 -11 131 -26l-26 -97c-28 12 -54 17 -80 17c-48 0 -78 -20 -82 -72c28 18 58 29 93 29c76 0 111 -47 111 -110c0 -102 -83 -137 -167 -137c-134 0 -181 70 -181 182zM210 154c-15 0 -27 -4 -38 -10c0 -42 11 -61 35 -61
c21 0 31 15 31 37c0 25 -10 34 -28 34z" />
    <glyph glyph-name="seven.denom" horiz-adv-x="358" 
d="M346 302l-121 -302h-171v14l116 248h-152v120h328v-80z" />
    <glyph glyph-name="eight.denom" horiz-adv-x="386" 
d="M142 114c0 -22 17 -33 45 -33c20 0 35 10 35 29c0 22 -28 31 -57 41c-11 -9 -23 -20 -23 -37zM169 280c0 -15 16 -27 44 -37c10 9 20 23 20 38c0 17 -13 28 -32 28c-20 0 -32 -12 -32 -29zM15 102c0 57 40 79 68 95c-29 13 -55 41 -55 79c0 69 57 113 172 113
c105 0 158 -38 158 -98c0 -44 -27 -75 -51 -89c39 -21 65 -39 65 -89c0 -80 -84 -120 -189 -120c-104 0 -168 38 -168 109z" />
    <glyph glyph-name="nine.denom" horiz-adv-x="396" 
d="M372 207c0 -110 -69 -214 -205 -214c-56 0 -97 10 -127 26l26 95c28 -12 54 -17 80 -17c48 0 78 22 82 74c-26 -20 -58 -31 -93 -31c-76 0 -110 47 -110 110c0 102 87 139 171 139c134 0 176 -70 176 -182zM188 224c15 0 29 7 37 14c1 42 -10 61 -34 61
c-21 0 -30 -17 -30 -39c0 -27 9 -36 27 -36z" />
    <glyph glyph-name="onehalf" unicode="&#xbd;" horiz-adv-x="949" 
d="M299 350h-165v214h-80l-13 104c48 12 98 33 127 64h131v-382zM133 0l445 720h153l-443 -720h-155zM556 0v94l104 74c31 22 59 41 59 66c0 17 -15 26 -34 26c-25 0 -67 -20 -94 -37l-57 90c47 41 117 76 200 76c81 0 151 -38 151 -114c0 -51 -25 -88 -73 -123l-62 -46h133
v-106h-327z" />
    <glyph glyph-name="onequarter" unicode="&#xbc;" horiz-adv-x="949" 
d="M303 350h-165v214h-80l-13 104c48 12 98 33 127 64h131v-382zM158 0l445 720h153l-443 -720h-155zM707 282l-78 -124h78v124zM707 0v58h-192v100l142 224h188v-224h44v-100h-44v-58h-138z" />
    <glyph glyph-name="threequarters" unicode="&#xbe;" horiz-adv-x="949" 
d="M54 395l43 84c32 -18 73 -31 107 -31c29 0 44 6 44 25c0 18 -10 26 -49 26c-14 0 -35 -1 -46 -3v90c45 1 76 7 76 29c0 15 -10 19 -30 19c-26 0 -65 -13 -91 -25l-38 86c44 24 99 44 171 44c94 0 141 -36 141 -97c0 -45 -30 -75 -80 -90c61 -6 95 -39 95 -90
c0 -83 -81 -119 -178 -119c-62 0 -122 17 -165 52zM187 0l445 720h153l-443 -720h-155zM715 282l-78 -124h78v124zM715 0v58h-192v100l142 224h188v-224h44v-100h-44v-58h-138z" />
    <glyph glyph-name="onethird" unicode="&#x2153;" horiz-adv-x="949" 
d="M300 350h-165v214h-80l-13 104c48 12 98 33 127 64h131v-382zM144 0l445 720h153l-443 -720h-155zM549 45l43 84c32 -18 73 -31 107 -31c29 0 44 6 44 25c0 18 -10 26 -49 26c-14 0 -35 -1 -46 -3v90c45 1 76 7 76 29c0 15 -10 19 -30 19c-26 0 -65 -13 -91 -25l-38 86
c44 24 99 44 171 44c94 0 141 -36 141 -97c0 -45 -30 -75 -80 -90c61 -6 95 -39 95 -90c0 -83 -81 -119 -178 -119c-62 0 -122 17 -165 52z" />
    <glyph glyph-name="twothirds" unicode="&#x2154;" horiz-adv-x="949" 
d="M43 350v94l104 74c31 22 59 41 59 66c0 17 -15 26 -34 26c-25 0 -67 -20 -94 -37l-57 90c47 41 117 76 200 76c81 0 151 -38 151 -114c0 -51 -25 -88 -73 -123l-62 -46h133v-106h-327zM195 0l445 720h153l-443 -720h-155zM589 45l43 84c32 -18 73 -31 107 -31
c29 0 44 6 44 25c0 18 -10 26 -49 26c-14 0 -35 -1 -46 -3v90c45 1 76 7 76 29c0 15 -10 19 -30 19c-26 0 -65 -13 -91 -25l-38 86c44 24 99 44 171 44c94 0 141 -36 141 -97c0 -45 -30 -75 -80 -90c61 -6 95 -39 95 -90c0 -83 -81 -119 -178 -119c-62 0 -122 17 -165 52z
" />
    <glyph glyph-name="onefifth" unicode="&#xf500;" horiz-adv-x="949" 
d="M311 350h-165v214h-80l-13 104c48 12 98 33 127 64h131v-382zM150 0l445 720h153l-443 -720h-155zM579 146l17 236h267l-7 -114h-164l-5 -47c14 6 41 15 75 15c72 0 124 -33 124 -110c0 -87 -76 -133 -171 -133c-77 0 -128 27 -166 57l44 79c30 -17 75 -30 101 -30
c31 0 52 11 52 36c0 20 -12 28 -31 28c-20 0 -36 -11 -41 -17h-95z" />
    <glyph glyph-name="twofifths" unicode="&#xf501;" horiz-adv-x="949" 
d="M52 350v94l104 74c31 22 59 41 59 66c0 17 -15 26 -34 26c-25 0 -67 -20 -94 -37l-57 90c47 41 117 76 200 76c81 0 151 -38 151 -114c0 -51 -25 -88 -73 -123l-62 -46h133v-106h-327zM200 0l445 720h153l-443 -720h-155zM610 146l17 236h267l-7 -114h-164l-5 -47
c14 6 41 15 75 15c72 0 124 -33 124 -110c0 -87 -76 -133 -171 -133c-77 0 -128 27 -166 57l44 79c30 -17 75 -30 101 -30c31 0 52 11 52 36c0 20 -12 28 -31 28c-20 0 -36 -11 -41 -17h-95z" />
    <glyph glyph-name="threefifths" unicode="&#xf502;" horiz-adv-x="949" 
d="M57 395l43 84c32 -18 73 -31 107 -31c29 0 44 6 44 25c0 18 -10 26 -49 26c-14 0 -35 -1 -46 -3v90c45 1 76 7 76 29c0 15 -10 19 -30 19c-26 0 -65 -13 -91 -25l-38 86c44 24 99 44 171 44c94 0 141 -36 141 -97c0 -45 -30 -75 -80 -90c61 -6 95 -39 95 -90
c0 -83 -81 -119 -178 -119c-62 0 -122 17 -165 52zM180 0l445 720h153l-443 -720h-155zM593 146l17 236h267l-7 -114h-164l-5 -47c14 6 41 15 75 15c72 0 124 -33 124 -110c0 -87 -76 -133 -171 -133c-77 0 -128 27 -166 57l44 79c30 -17 75 -30 101 -30c31 0 52 11 52 36
c0 20 -12 28 -31 28c-20 0 -36 -11 -41 -17h-95z" />
    <glyph glyph-name="fourfifths" unicode="&#xf503;" horiz-adv-x="949" 
d="M224 632l-78 -124h78v124zM224 350v58h-192v100l142 224h188v-224h44v-100h-44v-58h-138zM194 0l445 720h153l-443 -720h-155zM602 146l17 236h267l-7 -114h-164l-5 -47c14 6 41 15 75 15c72 0 124 -33 124 -110c0 -87 -76 -133 -171 -133c-77 0 -128 27 -166 57l44 79
c30 -17 75 -30 101 -30c31 0 52 11 52 36c0 20 -12 28 -31 28c-20 0 -36 -11 -41 -17h-95z" />
    <glyph glyph-name="onesixth" unicode="&#xf504;" horiz-adv-x="949" 
d="M308 350h-165v214h-80l-13 104c48 12 98 33 127 64h131v-382zM152 0l445 720h153l-443 -720h-155zM538 175c0 105 57 214 201 214c48 0 96 -11 131 -26l-26 -97c-28 12 -54 17 -80 17c-48 0 -78 -20 -82 -72c28 18 58 29 93 29c76 0 111 -47 111 -110
c0 -102 -83 -137 -167 -137c-134 0 -181 70 -181 182zM722 154c-15 0 -27 -4 -38 -10c0 -42 11 -61 35 -61c21 0 31 15 31 37c0 25 -10 34 -28 34z" />
    <glyph glyph-name="fivesixths" unicode="&#xf505;" horiz-adv-x="949" 
d="M81 496l17 236h267l-7 -114h-164l-5 -47c14 6 41 15 75 15c72 0 124 -33 124 -110c0 -87 -76 -133 -171 -133c-77 0 -128 27 -166 57l44 79c30 -17 75 -30 101 -30c31 0 52 11 52 36c0 20 -12 28 -31 28c-20 0 -36 -11 -41 -17h-95zM171 0l445 720h153l-443 -720h-155z
M537 175c0 105 57 214 201 214c48 0 96 -11 131 -26l-26 -97c-28 12 -54 17 -80 17c-48 0 -78 -20 -82 -72c28 18 58 29 93 29c76 0 111 -47 111 -110c0 -102 -83 -137 -167 -137c-134 0 -181 70 -181 182zM721 154c-15 0 -27 -4 -38 -10c0 -42 11 -61 35 -61
c21 0 31 15 31 37c0 25 -10 34 -28 34z" />
    <glyph glyph-name="oneeighth" unicode="&#x215b;" horiz-adv-x="949" 
d="M302 350h-165v214h-80l-13 104c48 12 98 33 127 64h131v-382zM145 0l445 720h153l-443 -720h-155zM670 114c0 -22 17 -33 45 -33c20 0 35 10 35 29c0 22 -28 31 -57 41c-11 -9 -23 -20 -23 -37zM697 280c0 -15 16 -27 44 -37c10 9 20 23 20 38c0 17 -13 28 -32 28
c-20 0 -32 -12 -32 -29zM543 102c0 57 40 79 68 95c-29 13 -55 41 -55 79c0 69 57 113 172 113c105 0 158 -38 158 -98c0 -44 -27 -75 -51 -89c39 -21 65 -39 65 -89c0 -80 -84 -120 -189 -120c-104 0 -168 38 -168 109z" />
    <glyph glyph-name="threeeighths" unicode="&#x215c;" horiz-adv-x="949" 
d="M43 395l43 84c32 -18 73 -31 107 -31c29 0 44 6 44 25c0 18 -10 26 -49 26c-14 0 -35 -1 -46 -3v90c45 1 76 7 76 29c0 15 -10 19 -30 19c-26 0 -65 -13 -91 -25l-38 86c44 24 99 44 171 44c94 0 141 -36 141 -97c0 -45 -30 -75 -80 -90c61 -6 95 -39 95 -90
c0 -83 -81 -119 -178 -119c-62 0 -122 17 -165 52zM172 0l445 720h153l-443 -720h-155zM679 114c0 -22 17 -33 45 -33c20 0 35 10 35 29c0 22 -28 31 -57 41c-11 -9 -23 -20 -23 -37zM706 280c0 -15 16 -27 44 -37c10 9 20 23 20 38c0 17 -13 28 -32 28
c-20 0 -32 -12 -32 -29zM552 102c0 57 40 79 68 95c-29 13 -55 41 -55 79c0 69 57 113 172 113c105 0 158 -38 158 -98c0 -44 -27 -75 -51 -89c39 -21 65 -39 65 -89c0 -80 -84 -120 -189 -120c-104 0 -168 38 -168 109z" />
    <glyph glyph-name="fiveeighths" unicode="&#x215d;" horiz-adv-x="949" 
d="M75 496l17 236h267l-7 -114h-164l-5 -47c14 6 41 15 75 15c72 0 124 -33 124 -110c0 -87 -76 -133 -171 -133c-77 0 -128 27 -166 57l44 79c30 -17 75 -30 101 -30c31 0 52 11 52 36c0 20 -12 28 -31 28c-20 0 -36 -11 -41 -17h-95zM164 0l445 720h153l-443 -720h-155z
M676 114c0 -22 17 -33 45 -33c20 0 35 10 35 29c0 22 -28 31 -57 41c-11 -9 -23 -20 -23 -37zM703 280c0 -15 16 -27 44 -37c10 9 20 23 20 38c0 17 -13 28 -32 28c-20 0 -32 -12 -32 -29zM549 102c0 57 40 79 68 95c-29 13 -55 41 -55 79c0 69 57 113 172 113
c105 0 158 -38 158 -98c0 -44 -27 -75 -51 -89c39 -21 65 -39 65 -89c0 -80 -84 -120 -189 -120c-104 0 -168 38 -168 109z" />
    <glyph glyph-name="seveneighths" unicode="&#x215e;" horiz-adv-x="949" 
d="M386 652l-121 -302h-171v14l116 248h-152v120h328v-80zM133 0l445 720h153l-443 -720h-155zM661 114c0 -22 17 -33 45 -33c20 0 35 10 35 29c0 22 -28 31 -57 41c-11 -9 -23 -20 -23 -37zM688 280c0 -15 16 -27 44 -37c10 9 20 23 20 38c0 17 -13 28 -32 28
c-20 0 -32 -12 -32 -29zM534 102c0 57 40 79 68 95c-29 13 -55 41 -55 79c0 69 57 113 172 113c105 0 158 -38 158 -98c0 -44 -27 -75 -51 -89c39 -21 65 -39 65 -89c0 -80 -84 -120 -189 -120c-104 0 -168 38 -168 109z" />
    <glyph glyph-name="oneseventh" unicode="&#xf506;" horiz-adv-x="949" 
d="M289 350h-165v214h-80l-13 104c48 12 98 33 127 64h131v-382zM132 0l445 720h153l-443 -720h-155zM905 302l-121 -302h-171v14l116 248h-152v120h328v-80z" />
    <glyph glyph-name="twosevenths" unicode="&#xf507;" horiz-adv-x="949" 
d="M42 350v94l104 74c31 22 59 41 59 66c0 17 -15 26 -34 26c-25 0 -67 -20 -94 -37l-57 90c47 41 117 76 200 76c81 0 151 -38 151 -114c0 -51 -25 -88 -73 -123l-62 -46h133v-106h-327zM181 0l445 720h153l-443 -720h-155zM930 302l-121 -302h-171v14l116 248h-152v120
h328v-80z" />
    <glyph glyph-name="threesevenths" unicode="&#xf508;" horiz-adv-x="949" 
d="M38 395l43 84c32 -18 73 -31 107 -31c29 0 44 6 44 25c0 18 -10 26 -49 26c-14 0 -35 -1 -46 -3v90c45 1 76 7 76 29c0 15 -10 19 -30 19c-26 0 -65 -13 -91 -25l-38 86c44 24 99 44 171 44c94 0 141 -36 141 -97c0 -45 -30 -75 -80 -90c61 -6 95 -39 95 -90
c0 -83 -81 -119 -178 -119c-62 0 -122 17 -165 52zM157 0l445 720h153l-443 -720h-155zM908 302l-121 -302h-171v14l116 248h-152v120h328v-80z" />
    <glyph glyph-name="foursevenths" unicode="&#xf509;" horiz-adv-x="949" 
d="M210 632l-78 -124h78v124zM210 350v58h-192v100l142 224h188v-224h44v-100h-44v-58h-138zM176 0l445 720h153l-443 -720h-155zM929 302l-121 -302h-171v14l116 248h-152v120h328v-80z" />
    <glyph glyph-name="fivesevenths" unicode="&#xf50a;" horiz-adv-x="949" 
d="M70 496l17 236h267l-7 -114h-164l-5 -47c14 6 41 15 75 15c72 0 124 -33 124 -110c0 -87 -76 -133 -171 -133c-77 0 -128 27 -166 57l44 79c30 -17 75 -30 101 -30c31 0 52 11 52 36c0 20 -12 28 -31 28c-20 0 -36 -11 -41 -17h-95zM148 0l445 720h153l-443 -720h-155z
M903 302l-121 -302h-171v14l116 248h-152v120h328v-80z" />
    <glyph glyph-name="sixsevenths" unicode="&#xf50b;" horiz-adv-x="949" 
d="M32 525c0 105 57 214 201 214c48 0 96 -11 131 -26l-26 -97c-28 12 -54 17 -80 17c-48 0 -78 -20 -82 -72c28 18 58 29 93 29c76 0 111 -47 111 -110c0 -102 -83 -137 -167 -137c-134 0 -181 70 -181 182zM216 504c-15 0 -27 -4 -38 -10c0 -42 11 -61 35 -61
c21 0 31 15 31 37c0 25 -10 34 -28 34zM158 0l445 720h153l-443 -720h-155zM915 302l-121 -302h-171v14l116 248h-152v120h328v-80z" />
    <glyph glyph-name="oneninth" unicode="&#xf50c;" horiz-adv-x="949" 
d="M297 350h-165v214h-80l-13 104c48 12 98 33 127 64h131v-382zM142 0l445 720h153l-443 -720h-155zM895 207c0 -110 -69 -214 -205 -214c-56 0 -97 10 -127 26l26 95c28 -12 54 -17 80 -17c48 0 78 22 82 74c-26 -20 -58 -31 -93 -31c-76 0 -110 47 -110 110
c0 102 87 139 171 139c134 0 176 -70 176 -182zM711 224c15 0 29 7 37 14c1 42 -10 61 -34 61c-21 0 -30 -17 -30 -39c0 -27 9 -36 27 -36z" />
    <glyph glyph-name="twoninths" unicode="&#xf50d;" horiz-adv-x="949" 
d="M50 350v94l104 74c31 22 59 41 59 66c0 17 -15 26 -34 26c-25 0 -67 -20 -94 -37l-57 90c47 41 117 76 200 76c81 0 151 -38 151 -114c0 -51 -25 -88 -73 -123l-62 -46h133v-106h-327zM196 0l445 720h153l-443 -720h-155zM924 207c0 -110 -69 -214 -205 -214
c-56 0 -97 10 -127 26l26 95c28 -12 54 -17 80 -17c48 0 78 22 82 74c-26 -20 -58 -31 -93 -31c-76 0 -110 47 -110 110c0 102 87 139 171 139c134 0 176 -70 176 -182zM740 224c15 0 29 7 37 14c1 42 -10 61 -34 61c-21 0 -30 -17 -30 -39c0 -27 9 -36 27 -36z" />
    <glyph glyph-name="fourninths" unicode="&#xf50e;" horiz-adv-x="949" 
d="M223 632l-78 -124h78v124zM223 350v58h-192v100l142 224h188v-224h44v-100h-44v-58h-138zM194 0l445 720h153l-443 -720h-155zM923 207c0 -110 -69 -214 -205 -214c-56 0 -97 10 -127 26l26 95c28 -12 54 -17 80 -17c48 0 78 22 82 74c-26 -20 -58 -31 -93 -31
c-76 0 -110 47 -110 110c0 102 87 139 171 139c134 0 176 -70 176 -182zM739 224c15 0 29 7 37 14c1 42 -10 61 -34 61c-21 0 -30 -17 -30 -39c0 -27 9 -36 27 -36z" />
    <glyph glyph-name="fiveninths" unicode="&#xf50f;" horiz-adv-x="949" 
d="M75 496l17 236h267l-7 -114h-164l-5 -47c14 6 41 15 75 15c72 0 124 -33 124 -110c0 -87 -76 -133 -171 -133c-77 0 -128 27 -166 57l44 79c30 -17 75 -30 101 -30c31 0 52 11 52 36c0 20 -12 28 -31 28c-20 0 -36 -11 -41 -17h-95zM160 0l445 720h153l-443 -720h-155z
M895 207c0 -110 -69 -214 -205 -214c-56 0 -97 10 -127 26l26 95c28 -12 54 -17 80 -17c48 0 78 22 82 74c-26 -20 -58 -31 -93 -31c-76 0 -110 47 -110 110c0 102 87 139 171 139c134 0 176 -70 176 -182zM711 224c15 0 29 7 37 14c1 42 -10 61 -34 61
c-21 0 -30 -17 -30 -39c0 -27 9 -36 27 -36z" />
    <glyph glyph-name="sevenninths" unicode="&#xf510;" horiz-adv-x="949" 
d="M367 652l-121 -302h-171v14l116 248h-152v120h328v-80zM124 0l445 720h153l-443 -720h-155zM888 207c0 -110 -69 -214 -205 -214c-56 0 -97 10 -127 26l26 95c28 -12 54 -17 80 -17c48 0 78 22 82 74c-26 -20 -58 -31 -93 -31c-76 0 -110 47 -110 110
c0 102 87 139 171 139c134 0 176 -70 176 -182zM704 224c15 0 29 7 37 14c1 42 -10 61 -34 61c-21 0 -30 -17 -30 -39c0 -27 9 -36 27 -36z" />
    <glyph glyph-name="eightninths" unicode="&#xf511;" horiz-adv-x="949" 
d="M171 464c0 -22 17 -33 45 -33c20 0 35 10 35 29c0 22 -28 31 -57 41c-11 -9 -23 -20 -23 -37zM198 630c0 -15 16 -27 44 -37c10 9 20 23 20 38c0 17 -13 28 -32 28c-20 0 -32 -12 -32 -29zM44 452c0 57 40 79 68 95c-29 13 -55 41 -55 79c0 69 57 113 172 113
c105 0 158 -38 158 -98c0 -44 -27 -75 -51 -89c39 -21 65 -39 65 -89c0 -80 -84 -120 -189 -120c-104 0 -168 38 -168 109zM172 0l445 720h153l-443 -720h-155zM900 207c0 -110 -69 -214 -205 -214c-56 0 -97 10 -127 26l26 95c28 -12 54 -17 80 -17c48 0 78 22 82 74
c-26 -20 -58 -31 -93 -31c-76 0 -110 47 -110 110c0 102 87 139 171 139c134 0 176 -70 176 -182zM716 224c15 0 29 7 37 14c1 42 -10 61 -34 61c-21 0 -30 -17 -30 -39c0 -27 9 -36 27 -36z" />
    <glyph glyph-name="minus" unicode="&#x2212;" 
d="M560 363v-123h-520v123h520z" />
    <glyph glyph-name="uni2215" unicode="&#x2215;" horiz-adv-x="137" 
d="M-234 0l445 720h153l-443 -720h-155z" />
    <glyph glyph-name="uni2219" unicode="&#x2219;" horiz-adv-x="334" 
d="M59 343c0 62 43 102 109 102c65 0 107 -40 107 -102c0 -59 -40 -102 -107 -102c-69 0 -109 43 -109 102z" />
    <glyph glyph-name="approxequal" unicode="&#x2248;" horiz-adv-x="741" 
d="M645 480l47 -110c-57 -41 -119 -66 -196 -66c-46 0 -90 14 -135 26l-13 3c-39 11 -74 22 -106 22c-43 0 -92 -18 -148 -51l-48 111c58 40 120 65 196 65c85 0 168 -50 254 -50c50 0 96 22 149 50zM647 262l47 -110c-57 -41 -119 -66 -196 -66c-46 0 -90 14 -135 26l-13 3
c-39 11 -74 22 -106 22c-43 0 -92 -18 -148 -51l-48 111c58 40 120 65 196 65c85 0 168 -50 254 -50c50 0 96 22 149 50z" />
    <glyph glyph-name="notequal" unicode="&#x2260;" 
d="M560 253v-125h-282l-72 -118h-156l73 118h-84v125h161l44 71h-205v125h282l52 84h153l-52 -84h86v-125h-162l-44 -71h206z" />
    <glyph glyph-name="lessequal" unicode="&#x2264;" 
d="M560 126v-126h-520v126h520zM506 153l-466 204v96l464 205l54 -130l-287 -123l289 -122z" />
    <glyph glyph-name="greaterequal" unicode="&#x2265;" 
d="M40 0v126h520v-126h-520zM560 357l-466 -204l-54 130l289 122l-287 123l54 130l464 -205v-96z" />
    <glyph glyph-name="less" unicode="&#x3c;" 
d="M527 37l-500 214v96l513 222l54 -130l-327 -140l314 -131z" />
    <glyph glyph-name="equal" unicode="=" 
d="M560 243v-125h-521v125h521zM560 439v-125h-521v125h521z" />
    <glyph glyph-name="greater" unicode="&#x3e;" 
d="M576 251l-515 -221l-54 131l329 138l-327 140l54 130l513 -222v-96z" />
    <glyph glyph-name="logicalnot" unicode="&#xac;" 
d="M569 117h-130v173h-407v122h537v-295z" />
    <glyph glyph-name="plus" unicode="+" 
d="M365 563v-200h196v-123h-196v-200h-129v200h-198v123h198v200h129z" />
    <glyph glyph-name="plusminus" unicode="&#xb1;" 
d="M365 543v-180h196v-123h-196v-117h195v-123h-520v123h196v117h-198v123h198v180h129z" />
    <glyph glyph-name="divide" unicode="&#xf7;" 
d="M300 553c40 0 72 -32 72 -74c0 -39 -30 -72 -72 -72c-41 0 -74 32 -74 72c0 41 34 74 74 74zM40 240v123h520v-123h-520zM299 201c41 0 73 -36 73 -75c0 -38 -30 -73 -74 -73c-40 0 -73 33 -73 73c0 41 34 75 74 75z" />
    <glyph glyph-name="multiply" unicode="&#xd7;" 
d="M531 440l-141 -141l141 -142l-87 -87l-141 142l-142 -142l-92 92l142 142l-142 141l87 87l142 -140l141 140z" />
    <glyph glyph-name="partialdiff" unicode="&#x2202;" horiz-adv-x="622" 
d="M251 -12c-121 0 -222 68 -222 217c0 147 87 259 235 259c54 0 102 -18 129 -59c1 12 1 22 1 31c0 76 -35 112 -104 112c-42 0 -100 -10 -140 -29l-27 131c73 38 145 51 210 51c164 0 245 -108 245 -281c0 -211 -92 -432 -327 -432zM280 151c58 0 87 55 87 101
s-24 76 -64 76c-57 0 -83 -58 -83 -106c0 -43 22 -71 60 -71z" />
    <glyph glyph-name="Omega" unicode="&#x2126;" horiz-adv-x="817" 
d="M450 0v170c71 45 101 115 101 193c0 94 -42 174 -140 174s-141 -81 -141 -176c0 -82 31 -152 95 -191v-170h-327v185h126v3c-62 33 -122 108 -122 217c0 187 138 328 369 328c232 0 368 -127 368 -309c0 -124 -64 -203 -132 -236v-3h129v-185h-326z" />
    <glyph glyph-name="Delta" unicode="&#x2206;" horiz-adv-x="753" 
d="M251 720h255l241 -720h-741zM273 148h197l-93 361z" />
    <glyph glyph-name="product" unicode="&#x220f;" horiz-adv-x="720" 
d="M45 -140v860h630v-860h-217v677h-196v-677h-217z" />
    <glyph glyph-name="summation" unicode="&#x2211;" horiz-adv-x="623" 
d="M595 535h-270l146 -220l-147 -249h287v-185h-614v78l216 356l-216 327v78h598v-185z" />
    <glyph glyph-name="uni0394" unicode="&#x394;" horiz-adv-x="753" 
d="M251 720h255l241 -720h-741zM273 148h197l-93 361z" />
    <glyph glyph-name="uni03A9" unicode="&#x3a9;" horiz-adv-x="817" 
d="M450 0v170c71 45 101 115 101 193c0 94 -42 174 -140 174s-141 -81 -141 -176c0 -82 31 -152 95 -191v-170h-327v185h126v3c-62 33 -122 108 -122 217c0 187 138 328 369 328c232 0 368 -127 368 -309c0 -124 -64 -203 -132 -236v-3h129v-185h-326z" />
    <glyph glyph-name="uni03BC" unicode="&#x3bc;" horiz-adv-x="610" 
d="M560 0h-160v46c-21 -33 -53 -53 -93 -53c-25 0 -45 6 -60 14v-207h-208v732h208v-341c0 -46 20 -64 55 -64c14 0 31 4 50 13v392h208v-532z" />
    <glyph glyph-name="pi" unicode="&#x3c0;" horiz-adv-x="741" 
d="M39 391v140h663v-140h-67v-391h-208v391h-104v-391h-208v391h-76z" />
    <glyph glyph-name="mu" unicode="&#xb5;" horiz-adv-x="621" 
d="M571 0h-160v46c-21 -33 -53 -53 -93 -53c-25 0 -45 6 -60 14v-207h-208v732h208v-341c0 -46 20 -64 55 -64c14 0 31 4 50 13v392h208v-532z" />
    <glyph glyph-name="radical" unicode="&#x221a;" horiz-adv-x="790" 
d="M41 208v144h263l106 -289l250 761h181l-335 -990h-191l-146 374h-128z" />
    <glyph glyph-name="infinity" unicode="&#x221e;" horiz-adv-x="808" 
d="M765 314c0 -114 -76 -179 -173 -179c-89 0 -138 45 -186 88c-60 -53 -113 -88 -191 -88c-100 0 -172 60 -172 166c0 102 69 175 183 175c78 0 131 -36 182 -94c61 59 113 95 194 95c111 0 163 -76 163 -163zM630 306c0 36 -18 56 -50 56s-64 -21 -98 -56
c22 -19 63 -55 97 -55c36 0 51 23 51 55zM328 302c-33 37 -59 60 -95 60s-53 -25 -53 -58c0 -28 20 -52 59 -52c28 0 59 20 89 50z" />
    <glyph glyph-name="integral" unicode="&#x222b;" horiz-adv-x="357" 
d="M-32 -51h62c36 0 58 17 58 66v584c0 126 66 191 197 191h89v-148h-51c-38 0 -54 -17 -54 -78v-573c0 -121 -61 -191 -210 -191h-91v149z" />
    <glyph glyph-name="lozenge" unicode="&#x25ca;" horiz-adv-x="643" 
d="M250 0l-197 352l197 348h136l205 -346l-205 -354h-136zM320 526l-99 -176l100 -180l100 180z" />
    <glyph glyph-name="zero.tf" 
d="M226 341c0 -113 14 -179 73 -179c57 0 75 67 75 179c0 113 -14 182 -75 182c-60 0 -73 -69 -73 -182zM24 341c0 233 86 360 275 360c190 0 276 -127 276 -355c0 -239 -86 -358 -276 -358c-189 0 -275 119 -275 353z" />
    <glyph glyph-name="one.tf" 
d="M104 0v155h125v293c-43 -18 -93 -24 -141 -23l-25 135c75 21 157 71 207 130h160v-535h115v-155h-441z" />
    <glyph glyph-name="two.tf" 
d="M50 0v121l197 232c47 56 72 84 72 120c0 35 -18 52 -56 52c-50 0 -113 -38 -163 -72l-76 132c74 63 165 116 281 116c132 0 232 -65 232 -201c0 -98 -45 -148 -109 -221l-100 -114h215v-165h-493z" />
    <glyph glyph-name="three.tf" 
d="M20 83l69 130c46 -25 110 -57 166 -57c50 0 88 20 88 63c0 44 -33 55 -91 55c-22 0 -52 -3 -69 -6l-5 152c69 4 139 18 139 68c0 36 -21 48 -61 48c-49 0 -94 -19 -136 -43l-72 126c71 46 147 82 251 82c133 0 216 -65 216 -171c0 -84 -54 -139 -136 -167
c97 -11 161 -69 161 -161c0 -147 -119 -214 -268 -214c-87 0 -179 29 -252 95z" />
    <glyph glyph-name="four.tf" 
d="M192 291h122v219zM314 0v133h-288v154l235 403h249v-399h62v-158h-62v-133h-196z" />
    <glyph glyph-name="five.tf" 
d="M58 249l35 441h417l-11 -177h-259l-9 -92c20 13 58 32 118 32c131 0 204 -80 204 -212c0 -170 -123 -253 -268 -253c-87 0 -189 34 -249 83l60 135c64 -33 119 -47 174 -47c46 0 87 23 87 83c0 48 -22 73 -65 73c-31 0 -56 -13 -75 -26l-4 -40h-155z" />
    <glyph glyph-name="six.tf" 
d="M38 328c0 234 100 373 286 373c71 0 146 -20 208 -60l-53 -132c-36 18 -85 28 -126 28c-83 0 -123 -40 -128 -142c33 26 88 51 149 51c113 0 192 -53 192 -208c0 -181 -125 -250 -260 -250c-191 0 -268 126 -268 340zM311 152c44 0 67 25 67 77s-26 71 -67 71
c-32 0 -61 -15 -77 -26c2 -67 17 -122 77 -122z" />
    <glyph glyph-name="seven.tf" 
d="M554 560l-230 -560h-229v18l223 495h-262v177h498v-130z" />
    <glyph glyph-name="eight.tf" 
d="M211 200c0 -36 25 -61 76 -61c44 0 67 23 67 54c0 42 -50 63 -99 84c-26 -20 -44 -43 -44 -77zM259 518c0 -29 26 -48 74 -70c20 25 30 44 30 69c0 26 -18 46 -53 46c-30 0 -51 -15 -51 -45zM34 179c0 94 57 144 109 172c-49 33 -90 79 -90 152c0 120 98 198 251 198
c152 0 238 -69 238 -175c0 -80 -45 -127 -84 -153c62 -37 110 -81 110 -172c0 -142 -114 -213 -276 -213c-163 0 -258 64 -258 191z" />
    <glyph glyph-name="nine.tf" 
d="M560 361c0 -234 -100 -373 -274 -373c-83 0 -160 19 -225 58l53 129c28 -13 89 -32 137 -32c76 0 106 47 117 142c-33 -26 -81 -49 -142 -49c-113 0 -194 60 -194 208c0 183 118 257 260 257c191 0 268 -135 268 -340zM287 537c-42 0 -67 -25 -67 -82
c0 -47 23 -73 67 -73c29 0 65 21 77 33c-2 67 -17 122 -77 122z" />
    <glyph glyph-name="dollar.tf" 
d="M233 -88v91c-79 11 -160 58 -209 108l94 119c60 -43 132 -78 183 -78c34 0 53 9 53 33c0 27 -19 39 -126 71c-122 37 -181 102 -181 204c0 125 91 191 187 207v82h154v-84c61 -13 119 -43 162 -79l-84 -119c-50 31 -101 57 -153 57c-40 0 -64 -9 -64 -37
c0 -30 22 -38 129 -74c120 -39 181 -94 181 -200c0 -113 -74 -186 -171 -207v-94h-155z" />
    <glyph glyph-name="Euro.tf" 
d="M-2 368l10 89h69c26 137 130 244 301 244c85 0 162 -31 228 -89l-79 -115c-46 31 -90 46 -139 46c-62 0 -97 -25 -116 -86h217l-9 -89h-223v-31v-18h219l-6 -89h-199c20 -56 61 -75 118 -75c53 0 103 22 151 53l69 -122c-94 -77 -159 -98 -252 -98
c-159 0 -261 102 -286 242h-83l7 89h68v17c0 11 0 21 1 32h-66z" />
    <glyph glyph-name="cent.tf" 
d="M502 280l51 -127c-40 -27 -86 -55 -153 -68v-103h-155v100c-116 18 -206 106 -206 266c0 139 79 248 207 269v102h154v-101c105 -21 164 -91 164 -224h-174c-2 49 -19 74 -58 74c-44 0 -73 -37 -73 -113c0 -80 33 -119 92 -119c46 0 94 16 151 44z" />
    <glyph glyph-name="sterling.tf" 
d="M361 238c0 -27 -15 -59 -32 -78h226v-160h-494v142l71 13c22 19 36 52 36 83c0 21 -7 43 -13 57h-98v127h58c-15 25 -27 48 -27 94c0 119 94 185 231 185c97 0 184 -37 244 -95l-77 -117c-45 31 -79 50 -131 50c-44 0 -62 -23 -62 -54c0 -27 9 -39 20 -63h146v-127h-110
c7 -18 12 -38 12 -57z" />
    <glyph glyph-name="yen.tf" 
d="M56 296v95h94l-158 299h204l108 -233l105 233h205l-165 -299h99v-95h-150v-64h150v-95h-150v-137h-192v137h-150v95h150v64h-150z" />
    <glyph glyph-name="florin.tf" 
d="M19 -56h39c29 0 45 17 54 55l63 294h-81l-1 133h110l12 63c21 120 59 201 202 201h103v-149h-62c-33 0 -45 -25 -52 -63l-10 -52h86v-133h-113l-58 -276c-26 -121 -69 -217 -210 -217h-82v144z" />
    <glyph glyph-name="zero.osf" horiz-adv-x="654" 
d="M232 303c0 -90 29 -141 94 -141s96 49 96 143c0 97 -34 134 -96 134s-94 -48 -94 -136zM29 300c0 197 112 312 297 312c198 0 298 -111 298 -308c0 -189 -100 -316 -298 -316s-297 124 -297 312z" />
    <glyph glyph-name="one.osf" horiz-adv-x="527" 
d="M61 0v155h134v203c-43 -18 -93 -23 -141 -22l-24 135c75 19 157 69 207 130h160v-446h115v-155h-451z" />
    <glyph glyph-name="two.osf" horiz-adv-x="565" 
d="M37 0v116l196 168c56 48 79 70 79 104c0 37 -23 50 -61 50c-51 0 -105 -32 -157 -73l-82 125c70 72 166 122 277 122c126 0 228 -47 228 -184c0 -80 -29 -127 -110 -195l-81 -68h212v-165h-501z" />
    <glyph glyph-name="three.osf" horiz-adv-x="544" 
d="M-5 28l71 125c51 -33 112 -56 169 -56c49 0 82 19 82 55c0 37 -28 49 -90 49c-22 0 -54 -3 -71 -6l-5 150c74 2 139 11 139 58c0 33 -21 44 -61 44c-42 0 -96 -19 -137 -43l-71 126c76 51 152 82 253 82c128 0 215 -54 215 -164c0 -79 -59 -133 -132 -159
c96 -15 155 -66 155 -158c0 -143 -127 -202 -265 -202c-87 0 -189 36 -252 99z" />
    <glyph glyph-name="four.osf" horiz-adv-x="619" 
d="M199 231h139v203zM338 -60v133h-306v154l258 374h251v-370h63v-158h-63v-133h-203z" />
    <glyph glyph-name="five.osf" horiz-adv-x="547" 
d="M40 177l33 424h408l-12 -177h-248l-9 -88c30 17 61 33 119 33c106 0 191 -61 191 -195c0 -162 -122 -245 -266 -245c-87 0 -182 32 -242 87l60 129c64 -33 108 -47 163 -47c46 0 91 20 91 76c0 42 -22 57 -58 57c-23 0 -55 -10 -72 -22l-3 -32h-155z" />
    <glyph glyph-name="six.osf" horiz-adv-x="592" 
d="M35 328c0 234 100 373 286 373c71 0 146 -20 208 -60l-53 -132c-36 18 -85 28 -126 28c-83 0 -123 -40 -128 -142c33 26 88 51 149 51c113 0 192 -53 192 -208c0 -181 -125 -250 -260 -250c-191 0 -268 126 -268 340zM308 152c44 0 67 25 67 77s-26 71 -67 71
c-32 0 -61 -15 -77 -26c2 -67 17 -122 77 -122z" />
    <glyph glyph-name="seven.osf" horiz-adv-x="521" 
d="M507 474l-217 -534h-227v18l208 466h-252v177h488v-127z" />
    <glyph glyph-name="eight.osf" horiz-adv-x="575" 
d="M200 200c0 -36 25 -61 76 -61c44 0 67 23 67 54c0 42 -50 63 -99 84c-26 -20 -44 -43 -44 -77zM248 516c0 -29 18 -47 73 -77c20 25 35 46 35 75s-22 49 -53 49c-34 0 -55 -17 -55 -47zM23 179c0 94 56 140 108 168c-46 23 -89 83 -89 156c0 120 98 198 251 198
c152 0 238 -69 238 -175c0 -80 -50 -131 -89 -157c62 -37 113 -79 113 -170c0 -142 -112 -211 -274 -211c-163 0 -258 64 -258 191z" />
    <glyph glyph-name="nine.osf" horiz-adv-x="590" 
d="M557 279c0 -234 -100 -352 -274 -352c-83 0 -160 19 -225 58l53 129c28 -13 91 -34 146 -34c69 0 96 28 108 117c-33 -26 -81 -49 -142 -49c-113 0 -194 60 -194 208c0 183 125 257 260 257c191 0 268 -136 268 -334zM284 449c-42 0 -67 -25 -67 -82c0 -47 23 -73 67 -73
c29 0 65 21 77 33c-2 67 -17 122 -77 122z" />
    <glyph glyph-name="dollar.osf" horiz-adv-x="565" 
d="M213 -88v91c-79 11 -160 58 -209 108l94 119c60 -43 132 -78 183 -78c34 0 53 9 53 33c0 27 -19 39 -126 71c-122 37 -181 102 -181 204c0 125 91 191 187 207v82h154v-84c61 -13 119 -43 162 -79l-84 -119c-50 31 -101 57 -153 57c-40 0 -64 -9 -64 -37
c0 -30 22 -38 129 -74c120 -39 181 -94 181 -200c0 -113 -74 -186 -171 -207v-94h-155z" />
    <glyph glyph-name="Euro.osf" horiz-adv-x="640" 
d="M10 368l8 89h69c26 134 132 244 303 244c85 0 172 -41 238 -99l-79 -115c-45 34 -100 56 -149 56c-62 0 -98 -25 -117 -86h226l-7 -89h-233v-31v-18h229l-7 -89h-209c20 -56 62 -75 119 -75c53 0 113 28 161 59l71 -122c-94 -77 -171 -104 -264 -104
c-159 0 -264 98 -287 242h-83l8 89h68v17c0 11 0 21 1 32h-66z" />
    <glyph glyph-name="cent.osf" horiz-adv-x="578" 
d="M492 200l51 -127c-40 -27 -86 -55 -153 -68v-103h-155v100c-116 18 -206 106 -206 266c0 139 79 248 207 269v102h154v-101c105 -21 164 -91 164 -224h-174c-2 49 -19 74 -58 74c-44 0 -73 -37 -73 -113c0 -80 33 -119 92 -119c46 0 94 16 151 44z" />
    <glyph glyph-name="sterling.osf" horiz-adv-x="549" 
d="M338 238c0 -27 -15 -59 -32 -78h226v-160h-494v142l71 13c22 19 36 52 36 83c0 21 -7 43 -13 57h-98v127h58c-15 25 -27 48 -27 94c0 119 94 185 231 185c97 0 184 -37 244 -95l-77 -117c-45 31 -79 50 -131 50c-44 0 -62 -23 -62 -54c0 -27 9 -39 20 -63h146v-127h-110
c7 -18 12 -38 12 -57z" />
    <glyph glyph-name="yen.osf" horiz-adv-x="620" 
d="M60 296v95h94l-158 299h204l108 -233l105 233h205l-165 -299h99v-95h-150v-64h150v-95h-150v-137h-192v137h-150v95h150v64h-150z" />
    <glyph glyph-name="florin.osf" horiz-adv-x="507" 
d="M-9 -56h39c29 0 45 17 54 55l63 294h-81l-1 133h110l12 63c21 120 59 201 202 201h103v-149h-62c-33 0 -45 -25 -52 -63l-10 -52h86v-133h-113l-58 -276c-26 -121 -69 -217 -210 -217h-82v144z" />
    <glyph glyph-name="zero.tosf" unicode="&#xf81e;" 
d="M227 304c0 -91 16 -142 72 -142s74 49 74 143c0 97 -23 134 -73 134c-52 0 -73 -48 -73 -135zM27 300c0 197 96 312 272 312c190 0 273 -111 273 -308c0 -189 -83 -316 -273 -316c-189 0 -272 124 -272 312z" />
    <glyph glyph-name="one.tosf" unicode="&#xf81f;" 
d="M103 0v155h134v203c-43 -18 -93 -23 -141 -22l-24 135c75 19 157 69 207 130h160v-446h115v-155h-451z" />
    <glyph glyph-name="two.tosf" unicode="&#xf820;" 
d="M62 0v116l196 168c56 48 79 70 79 104c0 37 -23 50 -61 50c-51 0 -105 -32 -157 -73l-82 125c70 72 166 122 277 122c126 0 228 -47 228 -184c0 -80 -29 -127 -110 -195l-81 -68h212v-165h-501z" />
    <glyph glyph-name="three.tosf" unicode="&#xf821;" 
d="M26 28l71 125c51 -33 112 -56 169 -56c49 0 82 19 82 55c0 37 -28 49 -90 49c-22 0 -54 -3 -71 -6l-5 150c74 2 139 11 139 58c0 33 -21 44 -61 44c-42 0 -96 -19 -137 -43l-71 126c76 51 152 82 253 82c128 0 215 -54 215 -164c0 -79 -59 -133 -132 -159
c96 -15 155 -66 155 -158c0 -143 -127 -202 -265 -202c-87 0 -189 36 -252 99z" />
    <glyph glyph-name="four.tosf" unicode="&#xf822;" 
d="M188 231h124v205zM312 -60v133h-286v154l228 374h261v-370h63v-158h-63v-133h-203z" />
    <glyph glyph-name="five.tosf" unicode="&#xf823;" 
d="M70 177l33 424h408l-12 -177h-248l-9 -88c30 17 61 33 119 33c106 0 191 -61 191 -195c0 -162 -122 -245 -266 -245c-87 0 -182 32 -242 87l60 129c64 -33 108 -47 163 -47c46 0 91 20 91 76c0 42 -22 57 -58 57c-23 0 -55 -10 -72 -22l-3 -32h-155z" />
    <glyph glyph-name="six.tosf" unicode="&#xf824;" 
d="M36 328c0 234 100 373 286 373c71 0 146 -20 208 -60l-53 -132c-36 18 -85 28 -126 28c-83 0 -123 -40 -128 -142c33 26 88 51 149 51c113 0 192 -53 192 -208c0 -181 -125 -250 -260 -250c-191 0 -268 126 -268 340zM309 152c44 0 67 25 67 77s-26 71 -67 71
c-32 0 -61 -15 -77 -26c2 -67 17 -122 77 -122z" />
    <glyph glyph-name="seven.tosf" unicode="&#xf825;" 
d="M545 474l-217 -534h-227v18l208 466h-252v177h488v-127z" />
    <glyph glyph-name="eight.tosf" unicode="&#xf826;" 
d="M212 200c0 -36 25 -61 76 -61c44 0 67 23 67 54c0 42 -50 63 -99 84c-26 -20 -44 -43 -44 -77zM260 516c0 -29 18 -47 73 -77c20 25 35 46 35 75s-22 49 -53 49c-34 0 -55 -17 -55 -47zM35 179c0 94 56 140 108 168c-46 23 -89 83 -89 156c0 120 98 198 251 198
c152 0 238 -69 238 -175c0 -80 -50 -131 -89 -157c62 -37 113 -79 113 -170c0 -142 -112 -211 -274 -211c-163 0 -258 64 -258 191z" />
    <glyph glyph-name="nine.tosf" unicode="&#xf827;" 
d="M562 279c0 -234 -100 -352 -274 -352c-83 0 -160 19 -225 58l53 129c28 -13 91 -34 146 -34c69 0 96 28 108 117c-33 -26 -81 -49 -142 -49c-113 0 -194 60 -194 208c0 183 125 257 260 257c191 0 268 -136 268 -334zM289 449c-42 0 -67 -25 -67 -82c0 -47 23 -73 67 -73
c29 0 65 21 77 33c-2 67 -17 122 -77 122z" />
    <glyph glyph-name="dollar.tosf" 
d="M234 -88v91c-79 11 -160 58 -209 108l94 119c60 -43 132 -78 183 -78c34 0 53 9 53 33c0 27 -19 39 -126 71c-122 37 -181 102 -181 204c0 125 91 191 187 207v82h154v-84c61 -13 119 -43 162 -79l-84 -119c-50 31 -101 57 -153 57c-40 0 -64 -9 -64 -37
c0 -30 22 -38 129 -74c120 -39 181 -94 181 -200c0 -113 -74 -186 -171 -207v-94h-155z" />
    <glyph glyph-name="Euro.tosf" 
d="M1 368l7 79h69c33 147 133 254 304 254c85 0 168 -36 228 -89l-79 -115c-44 30 -90 46 -139 46c-62 0 -99 -35 -118 -96h216l-6 -79h-223v-31v-18h219l-6 -79h-199c20 -56 61 -85 118 -85c53 0 101 22 149 53l71 -122c-77 -72 -159 -98 -252 -98
c-159 0 -257 101 -286 252h-83l7 79h68v17c0 11 0 21 1 32h-66z" />
    <glyph glyph-name="cent.tosf" 
d="M502 200l51 -127c-40 -27 -86 -55 -153 -68v-103h-155v100c-116 18 -206 106 -206 266c0 139 79 248 207 269v102h154v-101c105 -21 164 -91 164 -224h-174c-2 49 -19 74 -58 74c-44 0 -73 -37 -73 -113c0 -80 33 -119 92 -119c46 0 94 16 151 44z" />
    <glyph glyph-name="sterling.tosf" 
d="M353 238c0 -27 -15 -59 -32 -78h226v-160h-494v142l71 13c22 19 36 52 36 83c0 21 -7 43 -13 57h-98v127h58c-15 25 -27 48 -27 94c0 119 94 185 231 185c97 0 184 -37 244 -95l-77 -117c-45 31 -79 50 -131 50c-44 0 -62 -23 -62 -54c0 -27 9 -39 20 -63h146v-127h-110
c7 -18 12 -38 12 -57z" />
    <glyph glyph-name="yen.tosf" 
d="M55 296v95h94l-158 299h204l108 -233l105 233h205l-165 -299h99v-95h-150v-64h150v-95h-150v-137h-192v137h-150v95h150v64h-150z" />
    <glyph glyph-name="florin.tosf" 
d="M36 -56h39c29 0 45 17 54 55l63 294h-81l-1 133h110l12 63c21 120 59 201 202 201h103v-149h-62c-33 0 -45 -25 -52 -63l-10 -52h86v-133h-113l-58 -276c-26 -121 -69 -217 -210 -217h-82v144z" />
    <glyph glyph-name="currency" unicode="&#xa4;" horiz-adv-x="576" 
d="M363 338c0 47 -31 75 -75 75c-39 0 -76 -28 -76 -75c0 -50 32 -77 76 -77s75 35 75 77zM32 505l82 89l80 -84c28 14 59 22 93 22c33 0 63 -7 90 -20l79 80l87 -88l-81 -80c15 -27 24 -55 24 -87c0 -33 -8 -63 -24 -91l81 -77l-87 -88l-80 82c-31 -16 -60 -22 -89 -22
c-32 0 -62 8 -90 22c-28 -27 -54 -55 -81 -82l-83 87l79 80c-14 25 -23 56 -23 89c0 30 9 60 23 87z" />
    <glyph glyph-name="apple" horiz-adv-x="2406" 
d="M1677 -97l-17 -8c5 -11 9 -23 9 -37c0 -61 -92 -112 -242 -112c-80 0 -146 21 -190 57c-49 -25 -103 -43 -159 -43c-60 0 -115 15 -148 43c-43 -61 -145 -85 -250 -85c-101 0 -246 56 -241 172c-27 14 -48 36 -55 56c-32 -13 -70 -22 -118 -22c-113 0 -162 98 -138 205
c16 77 87 150 172 189c-23 33 -29 79 -19 122c24 108 98 163 156 163c4 0 8 0 12 -1c41 40 127 56 187 56c51 0 108 -8 155 -26c49 68 135 111 227 111c6 0 13 -1 19 -2c48 66 159 103 289 103c110 0 202 -54 247 -134c53 17 111 23 168 23c69 0 241 -25 274 -115
c16 9 35 15 54 15c77 0 131 -57 115 -125c-5 -25 -10 -34 -20 -49c54 -33 88 -100 68 -189c-8 -31 -19 -58 -34 -80c67 -46 79 -128 64 -196c-22 -98 -123 -124 -206 -124c-22 0 -45 3 -66 8c-19 -24 -67 -46 -127 -46c-58 0 -127 29 -148 88l-28 -12
c13 -82 100 -123 187 -123c54 0 97 10 159 40l1 -2c-47 -25 -100 -42 -159 -42c-92 0 -179 32 -198 122zM692 505c16 0 33 -2 50 -7c2 25 8 50 17 74c-28 8 -60 13 -94 13c-46 0 -96 -8 -149 -29c6 -11 9 -24 9 -39c0 -75 -46 -119 -88 -119c-30 0 -47 28 -39 63
c4 21 19 39 38 54c-9 13 -13 31 -8 50c3 13 9 25 19 35c-3 1 -7 1 -10 1c-57 0 -121 -53 -145 -161c-10 -39 -7 -85 13 -120c38 16 76 27 115 27c30 0 56 -20 51 -43c-4 -23 -25 -35 -74 -35c-43 0 -75 17 -95 44c-77 -40 -134 -113 -150 -181c-27 -117 13 -206 114 -206
c47 0 85 9 117 22c-11 26 -11 54 -3 83c9 39 42 62 67 62c26 0 30 -30 26 -51c-5 -33 -33 -70 -84 -94c6 -20 25 -40 51 -53c0 6 1 13 3 19c14 65 72 113 137 121c0 0 0 -1 1 -1c-61 -8 -109 -57 -123 -120c-2 -9 -3 -17 -4 -26c26 -10 58 -13 90 -4v-1
c-32 -11 -63 -9 -90 0c0 -104 122 -163 226 -163c102 0 209 22 249 84c-23 21 -34 47 -26 80c2 13 8 24 16 34c-7 7 -16 13 -26 18c-65 -51 -138 -95 -200 -95c-47 0 -94 23 -82 75c10 42 84 51 137 51c37 0 84 -5 122 -19c80 60 161 130 262 134c-7 18 -13 39 -16 59
c-20 -16 -41 -23 -62 -23c-34 0 -41 39 -35 71l35 158h-80c-14 -72 -31 -156 -43 -213c-17 -85 -91 -128 -146 -128c-35 0 -74 11 -102 44l2 2c21 -18 37 -30 68 -30c68 0 94 72 104 114c14 54 34 141 50 211h-45c0 2 0 5 1 8h46l17 68c17 80 78 127 140 127
c31 0 101 -7 116 -64c18 9 62 26 99 26c39 0 59 -9 47 -66c-5 -24 -13 -56 -21 -89c79 12 124 63 143 120c-30 7 -61 33 -61 71c0 31 16 61 43 87c-29 37 -73 59 -111 59c-55 0 -86 -32 -86 -69c0 -19 9 -39 27 -50l-3 -2c-18 10 -37 33 -37 52c0 43 37 73 99 73
c39 0 84 -23 113 -60c33 31 82 56 137 72c-42 75 -130 129 -245 129c-119 0 -227 -34 -276 -101c30 -9 61 -33 49 -71c-5 -19 -21 -31 -47 -31c-24 0 -43 26 -35 62c4 14 10 29 18 42c-5 1 -11 1 -17 1c-92 0 -169 -46 -218 -113c46 -20 80 -52 89 -99c2 -9 2 -25 -4 -35
l-2 2c4 9 5 24 3 33c-9 45 -43 76 -88 96c-12 -16 -22 -34 -30 -53c34 -11 103 -38 91 -95c-6 -24 -63 -51 -99 -66c-49 -20 -92 -46 -112 -87c-15 -31 -16 -82 18 -97c7 86 76 129 115 129c47 0 67 -38 46 -74c-22 -36 -57 -51 -98 -59c-2 -43 13 -75 35 -75
c18 0 35 11 46 25c-7 10 -13 17 -10 27c2 9 7 12 19 12c6 0 9 -3 10 -7c1 -6 -1 -12 -3 -16c-3 -5 -5 -10 -9 -14c11 -14 27 -31 22 -57c-7 -31 -46 -55 -98 -55c-43 0 -137 38 -212 73c-19 -11 -43 -18 -70 -18c-35 0 -73 22 -73 62c0 18 15 29 21 29c13 0 34 -19 71 -39
c4 10 9 19 12 26l88 224c26 66 80 85 114 85zM1421 148c40 0 64 35 78 92c8 35 3 54 -6 77l2 1c13 -27 17 -51 10 -82c-15 -66 -47 -102 -116 -102c-47 0 -74 62 -59 126c16 66 72 96 108 96c20 0 34 -5 41 -15c14 9 30 14 49 14h27l15 68c17 79 78 127 140 127
c20 0 44 -2 72 -14l10 -6c13 9 27 14 42 18c-3 8 -3 17 -2 26c3 23 17 37 34 51l3 -1c-15 -17 -21 -34 -24 -50c-2 -8 -1 -17 0 -24c9 1 18 2 26 2c38 0 68 -22 84 -52c33 11 51 37 57 61c4 18 4 34 0 48c-25 -19 -41 -44 -41 -44c0 15 16 35 39 50
c-30 89 -198 116 -269 116c-58 0 -115 -8 -165 -24c20 -39 28 -83 17 -130c-16 -57 -74 -102 -128 -102c-3 0 -8 0 -11 1c-19 -60 -65 -115 -148 -127c-16 -66 -34 -137 -40 -165c-9 -46 -3 -79 35 -79c20 0 24 2 50 16l3 -3c-37 -25 -77 -34 -109 -34c-42 0 -67 30 -53 89
c10 48 31 115 47 174h-118l-36 -160c-3 -16 0 -38 15 -38c5 0 10 2 14 5c0 9 -1 18 -1 27c0 45 16 65 34 65c17 0 18 -16 14 -34c-7 -32 -19 -42 -34 -60c2 -24 8 -48 15 -70c36 -1 53 -9 51 -26c-1 -8 -5 -13 -13 -14c5 1 8 7 9 14c2 15 -14 23 -46 24c7 -20 19 -37 33 -38
c-21 1 -35 16 -43 38c-88 -5 -147 -81 -238 -143c10 -5 19 -10 26 -17c31 36 93 52 147 52c37 0 71 -9 105 -22c2 9 3 19 6 28c13 64 101 104 135 104c13 0 7 -17 16 -29c19 -22 39 -31 69 -31c68 0 95 72 106 114l48 211h-25c-18 0 -33 -6 -43 -13c4 -7 6 -13 6 -20
c0 -11 -8 -18 -18 -18s-16 8 -16 16c0 12 7 20 16 26c-5 5 -10 8 -21 8c-25 0 -46 -33 -61 -97c-13 -56 5 -101 30 -101zM2149 211l3 1c12 -4 22 -9 32 -14c12 22 21 48 28 78c18 82 -5 145 -50 179c-28 -45 -70 -49 -80 -49c-18 0 -46 12 -46 34s23 42 50 42
c24 0 47 -5 68 -17c8 14 14 29 19 50c15 66 -35 117 -104 117c-19 0 -37 -8 -52 -19c5 -16 5 -33 1 -53c-6 -25 -25 -51 -61 -63c11 -22 14 -47 8 -71c-16 -60 -73 -79 -130 -79h-72c-14 -54 -25 -107 -38 -160c-2 -16 1 -38 17 -38c7 0 15 6 22 13c-7 19 -8 41 -2 63
c5 28 23 45 33 45c18 0 13 -26 10 -38c-8 -31 -19 -55 -31 -71c7 -27 23 -49 47 -61c8 45 36 59 63 59c19 0 36 -15 30 -35c-3 -21 -25 -35 -51 -35c-10 0 -18 1 -27 3c0 -39 24 -64 60 -74c14 30 50 52 90 52c9 0 19 -1 28 -5l-1 -2c-10 4 -19 5 -27 5
c-37 0 -70 -22 -83 -52c9 -2 19 -3 29 -3c70 0 124 35 153 98c-15 -4 -36 -6 -51 -6c-76 0 -102 57 -92 103c13 54 57 82 101 82c50 0 87 -47 73 -127c-4 -20 -6 -28 -15 -43c35 13 61 38 81 75c-10 6 -21 11 -33 16zM1745 68l2 -2c-42 -43 -68 -81 -62 -148l28 9
c-13 46 1 95 46 129l3 -3c-48 -34 -55 -89 -45 -123c48 16 106 29 154 29h21c-3 12 -3 25 -1 40c1 5 2 11 4 16c-44 10 -76 39 -74 82c-25 10 -43 30 -54 55c-22 -25 -47 -34 -73 -34c-34 0 -40 39 -34 71c11 53 22 105 34 158h-74l-46 -212c-18 -86 -90 -129 -145 -129
c-35 0 -76 9 -102 44c-11 15 -1 30 -13 30c-37 0 -122 -51 -125 -137c43 -18 85 -43 127 -62c61 38 148 71 205 71c53 0 106 -15 132 -48c7 4 15 8 23 11c-6 63 22 110 69 153zM1998 -101c0 -6 -3 -13 -8 -20c21 -5 44 -8 66 -8c71 0 165 30 189 129c14 62 12 139 -50 186
c-24 -35 -57 -59 -96 -71c-32 -67 -93 -104 -167 -104c-11 0 -21 1 -30 2c-2 -4 -3 -9 -4 -14c-2 -15 -2 -29 1 -41c62 -5 99 -26 99 -59zM755 495c9 -4 20 -15 16 -26c-3 -7 -9 -11 -18 -10c-7 1 -12 14 -11 24v10c-7 2 -16 4 -22 4c-35 0 -62 -42 -76 -81l-70 -220
c-7 -23 -21 -41 -39 -55c71 -35 152 -73 204 -72c75 1 97 53 89 81c-1 7 -8 14 -14 20c-16 -22 -45 -36 -82 -36c-39 0 -68 40 -66 91c-38 12 -46 65 -30 100c21 41 73 71 122 88c35 12 82 41 88 65c13 54 -39 79 -79 91c-10 -23 -17 -47 -20 -71zM948 -159
c-3 -11 -8 -22 -14 -32c3 -3 6 -7 10 -10c32 -27 87 -36 134 -36c58 0 102 22 144 51c-34 36 -52 82 -49 134c-34 13 -69 22 -105 22c-56 0 -110 -20 -135 -61c11 -13 17 -29 17 -48c0 -6 0 -12 -2 -20zM1918 492c-36 0 -72 22 -83 52c-13 -3 -25 -9 -36 -19
c10 -7 15 -18 15 -26c0 -11 -8 -19 -22 -19c-16 0 -23 9 -23 18c0 6 2 11 6 15c3 6 9 9 13 13c-33 17 -51 15 -63 15c-36 0 -71 -39 -83 -95l-20 -91h17c62 0 125 42 131 76c-1 8 0 22 9 22c6 0 12 -8 9 -15c-2 -9 -4 -19 -8 -28c-6 -19 -13 -37 -16 -55h67
c43 0 101 15 118 72c6 21 4 46 -4 67c-8 -1 -17 -2 -27 -2zM1134 531c-30 10 -40 10 -51 10c-37 0 -75 -39 -88 -95l-19 -91h19c55 0 122 29 146 91h2l-21 -91h119c9 31 17 59 22 79c11 41 -14 61 -42 61c-14 0 -25 -6 -34 -12l-4 -1c1 -3 2 -7 2 -11c0 -11 -2 -20 -14 -20
c-7 0 -14 7 -10 17c3 7 9 12 18 16c-7 23 -27 39 -45 47zM1656 -142c0 12 -3 23 -7 33c-58 -27 -121 -51 -186 -51c-44 0 -83 12 -121 28c-29 -20 -63 -42 -100 -62c42 -36 105 -58 185 -58c147 0 229 50 229 110zM1589 577c10 46 3 91 -16 129c-54 -18 -101 -45 -131 -78
c15 -23 24 -49 24 -79c0 -23 -4 -48 -11 -71c3 -1 6 -1 9 -1c51 0 112 44 125 100zM2100 160c20 87 -19 128 -57 128c-49 0 -78 -46 -80 -95c-2 -30 6 -67 39 -81c9 -3 19 -5 32 -5c17 0 37 2 53 7c7 15 10 24 13 46zM1871 -42c-54 0 -106 -17 -152 -37
c20 -58 87 -88 144 -88c55 0 98 24 112 49c-40 12 -73 36 -82 76h-22zM1521 -50c-26 0 -50 -7 -75 -18c-34 -16 -68 -39 -102 -62c38 -16 77 -29 119 -29c59 0 105 23 155 47l25 12c-21 34 -69 50 -122 50zM693 -157c53 0 110 51 175 104c-38 13 -83 18 -120 18
c-49 0 -114 -12 -126 -51c-12 -44 26 -71 71 -71zM640 655c-64 0 -141 -17 -178 -55c23 -6 42 -19 53 -41c51 19 105 27 150 27c34 0 67 -4 95 -12c7 20 17 38 29 55c-46 19 -101 26 -149 26zM521 517c0 15 -3 27 -8 38l-7 -3c-20 -9 -43 -21 -62 -37c6 -12 18 -19 36 -18
c1 -1 1 -2 1 -2c-18 -2 -32 5 -42 16c-15 -14 -27 -30 -31 -50c-7 -34 3 -61 29 -61c37 0 84 48 84 117zM420 345c-40 0 -77 -11 -113 -28c17 -27 47 -47 90 -47c46 0 65 12 70 34c4 23 -18 41 -47 41zM389 29c-5 -28 -7 -53 -1 -77c48 24 74 59 80 90c2 15 4 49 -21 49
c-18 0 -49 -22 -58 -62zM1229 -180c28 17 55 43 85 59l-54 27c-25 13 -47 25 -71 35c-4 -45 11 -88 40 -121zM795 346c-22 0 -39 -24 -54 -68c-4 -14 -9 -32 -11 -47c40 9 75 24 92 58c4 7 6 14 6 21c0 19 -12 36 -33 36zM1462 549c0 29 -9 55 -23 76
c-20 -23 -32 -49 -32 -77c0 -36 19 -62 44 -69c7 23 11 47 11 70zM2082 408c10 0 44 11 69 54c-18 12 -41 18 -65 18s-45 -18 -45 -40s25 -32 41 -32zM1095 668c12 34 -17 59 -47 68c-9 -13 -16 -26 -20 -42c-9 -38 10 -54 24 -54c24 0 38 10 43 28zM1863 91
c21 0 36 8 43 33c3 11 -3 32 -22 32c-28 0 -44 -23 -48 -62c8 -2 17 -3 27 -3zM392 177c0 -19 15 -48 38 -48c19 0 33 17 43 34l-54 29c-8 5 -12 6 -16 6c-3 0 -11 -5 -11 -21zM1918 494c9 0 18 1 26 3c-12 29 -36 52 -73 52c-8 0 -17 -1 -25 -2c8 -30 38 -53 72 -53z
M443 565c-5 -18 -5 -33 -1 -45c20 15 43 26 62 34l8 3c-11 22 -30 36 -51 41c-9 -9 -15 -21 -18 -33zM1980 -101c0 32 -29 52 -80 58c9 -37 39 -60 76 -73c3 5 4 10 4 15zM1771 170c3 4 6 9 8 14c13 22 20 49 20 48c2 6 10 37 -4 37c-8 0 -17 -18 -24 -44
c-4 -18 -4 -37 0 -55zM921 -121c-8 -28 -2 -51 12 -68c8 14 13 31 13 50c0 18 -6 32 -15 45c-5 -8 -8 -17 -10 -27zM1126 164c14 15 24 27 28 48c3 15 6 32 -7 32c-11 0 -22 -19 -22 -63c0 -5 0 -12 1 -17zM1782 498c0 -8 4 -16 10 -16c11 0 18 7 18 17s-5 19 -15 23
c-6 -6 -13 -14 -13 -24zM752 491c-2 0 -3 0 -6 1v-9c-1 -11 2 -22 8 -23c5 0 10 4 12 9c5 11 -6 17 -14 22zM1480 332c-6 -3 -13 -12 -13 -21c0 -7 3 -11 8 -11c8 0 11 7 11 14s-3 14 -6 18zM823 191c1 3 2 6 2 9c1 6 -1 11 -6 11s-10 -9 -11 -13c-1 -8 2 -14 6 -19z
M1180 471v9c-8 -3 -13 -9 -15 -13c-3 -8 1 -14 6 -14c9 0 9 8 9 18z" />
    <glyph glyph-name="arrowright" unicode="&#x2192;" 
d="M30 186v147h282l-72 74l107 93l223 -238l-224 -237l-102 94l66 67h-280z" />
    <glyph glyph-name="arrowleft" unicode="&#x2190;" 
d="M570 333v-147h-280l66 -67l-102 -94l-224 237l223 238l107 -93l-72 -74h282z" />
    <glyph glyph-name="arroewup" horiz-adv-x="500" 
d="M329 0h-153v293l-71 -70l-93 94l239 223l236 -224l-94 -89l-64 64v-291z" />
    <glyph glyph-name="arrowdown" unicode="&#x2193;" horiz-adv-x="500" 
d="M176 522h153v-291l64 64l94 -89l-236 -224l-239 223l93 94l71 -70v293z" />
    <glyph glyph-name="arrowNW" horiz-adv-x="500" 
d="M491 126l-106 -102l-181 187v-99h-136v328h337v-128h-102z" />
    <glyph glyph-name="arrowNE" horiz-adv-x="500" 
d="M114 24l-106 102l188 186h-102v128h337v-328h-136v99z" />
    <glyph glyph-name="arrowSE" horiz-adv-x="500" 
d="M8 366l106 102l181 -187v99h136v-328h-337v128h102z" />
    <glyph glyph-name="arrowSW" horiz-adv-x="500" 
d="M385 468l106 -102l-188 -186h102v-128h-337v328h136v-99z" />
    <glyph glyph-name="arrowLeftRight" horiz-adv-x="1000" 
d="M329 407l-72 -74h482l-72 74l107 93l223 -238l-224 -237l-102 94l66 67h-478l66 -67l-102 -94l-224 237l223 238z" />
    <glyph glyph-name="arrowUpDown" horiz-adv-x="750" 
d="M230 51l74 -72v482l-74 -72l-93 107l239 223l236 -224l-94 -102l-67 66v-478l67 66l94 -102l-237 -224l-238 223z" />
    <glyph glyph-name="arrowright.750" horiz-adv-x="750" 
d="M0 186v147h492l-72 74l107 93l223 -238l-224 -237l-102 94l66 67h-490z" />
    <glyph glyph-name="arrowup.750" horiz-adv-x="750" 
d="M451 -108h-147v492l-74 -72l-93 107l238 223l237 -224l-94 -102l-67 66v-490z" />
    <glyph glyph-name="arrowleft.750" horiz-adv-x="750" 
d="M750 333v-147h-490l66 -67l-102 -94l-224 237l223 238l107 -93l-72 -74h492z" />
    <glyph glyph-name="arrowdown.750" horiz-adv-x="750" 
d="M304 630h147v-490l67 66l94 -102l-237 -224l-238 223l93 107l74 -72v492z" />
    <glyph glyph-name="arrowNW.750" horiz-adv-x="750" 
d="M680 48l-106 -102l-344 348v-99h-136v328h337v-128h-102z" />
    <glyph glyph-name="arrowNE.750" horiz-adv-x="750" 
d="M176 -54l-106 102l351 347h-102v128h337v-328h-136v99z" />
    <glyph glyph-name="arrowSE.750" horiz-adv-x="750" 
d="M70 475l106 102l344 -348v99h136v-328h-337v128h102z" />
    <glyph glyph-name="arrowSW.750" horiz-adv-x="750" 
d="M574 577l106 -102l-351 -347h102v-128h-337v328h136v-99z" />
    <glyph glyph-name="arrowCircleLeft" horiz-adv-x="750" 
d="M196 238v90c0 134 93 231 256 231c153 0 245 -77 245 -244h-157c0 62 -14 115 -92 115c-77 0 -99 -49 -99 -110v-80l64 64l94 -89l-236 -224l-239 223l93 94z" />
    <glyph glyph-name="arrowCircleRight" horiz-adv-x="750" 
d="M553 334v-96l71 70l93 -94l-239 -223l-236 224l94 89l64 -64v87c0 61 -22 103 -93 103c-84 0 -98 -53 -98 -115h-157c0 167 99 244 260 244c163 0 241 -65 241 -225z" />
    <glyph glyph-name="arrowDubLeft" horiz-adv-x="750" 
d="M226 264l25 -27h433v-114h-327l35 -37l-105 -96l-257 272l253 276l107 -93l-39 -43h333v-114h-437z" />
    <glyph glyph-name="arrowDubTop" horiz-adv-x="750" 
d="M402 433l-27 25l-24 -22v-436h-114v333l-43 -39l-93 107l276 253l272 -257l-96 -105l-37 34v-326h-114v433z" />
    <glyph glyph-name="arrowDubRight" horiz-adv-x="750" 
d="M499 237l25 27l-22 24h-436v114h333l-39 43l107 93l253 -276l-257 -272l-105 96l34 37h-326v114h433z" />
    <glyph glyph-name="arrowDubDown" horiz-adv-x="750" 
d="M375 184l27 25v433h114v-327l37 35l96 -105l-272 -257l-276 253l93 107l43 -39v333h114v-437z" />
    <glyph glyph-name="triangleBlackLeft" horiz-adv-x="610" 
d="M537 490v-467l-485 235v2z" />
    <glyph glyph-name="triangleBlackRight" horiz-adv-x="610" 
d="M73 23v467l485 -230v-2z" />
    <glyph glyph-name="triangleWhiteLeft" horiz-adv-x="610" 
d="M454 147v220l-212 -107v0zM537 490v-465l-486 234v2z" />
    <glyph glyph-name="triangleWhiteRight" horiz-adv-x="610" 
d="M156 367v-220l212 113v0zM73 25v465l486 -229v-2z" />
    <glyph glyph-name="square" horiz-adv-x="610" 
d="M479 151h-349v349h349v-349z" />
    <glyph glyph-name="square.open" horiz-adv-x="610" 
d="M434 196v259h-259v-259h259zM479 151h-349v349h349v-349z" />
    <glyph glyph-name="circle" unicode="&#x25cb;" horiz-adv-x="610" 
d="M305 119c-113 0 -205 92 -205 205s92 205 205 205s205 -92 205 -205s-92 -205 -205 -205z" />
    <glyph glyph-name="circle.open" horiz-adv-x="610" 
d="M305 119c-113 0 -205 92 -205 205s92 205 205 205s205 -92 205 -205s-92 -205 -205 -205zM305 167c85 0 151 74 151 160c0 85 -66 153 -151 153c-86 0 -150 -71 -150 -156c0 -86 64 -157 150 -157z" />
    <glyph glyph-name="triangle.left" horiz-adv-x="425" 
d="M275 203l-185 117l185 114v-231z" />
    <glyph glyph-name="triangle" unicode="&#x25b3;" horiz-adv-x="425" 
d="M335 320l-185 -117v231z" />
    <glyph glyph-name="raute" horiz-adv-x="610" 
d="M514 325l-210 -209l-209 210l210 209z" />
    <glyph glyph-name="circumflex" unicode="&#x2c6;" horiz-adv-x="500" 
d="M200 780h102l131 -149l-88 -64l-94 77l-94 -77l-90 66z" />
    <glyph glyph-name="caron" unicode="&#x2c7;" horiz-adv-x="500" 
d="M300 579h-102l-131 149l88 64l94 -77l94 77l90 -66z" />
    <glyph glyph-name="uni02C9" unicode="&#x2c9;" horiz-adv-x="500" 
d="M103 592v124h295v-124h-295z" />
    <glyph glyph-name="breve" unicode="&#x2d8;" horiz-adv-x="500" 
d="M250 684c43 0 55 22 61 63l113 -16c-9 -90 -62 -144 -174 -144c-114 0 -164 49 -177 144l116 17c7 -43 22 -64 61 -64z" />
    <glyph glyph-name="dieresis" unicode="&#xa8;" horiz-adv-x="500" 
d="M275 666c0 47 35 83 96 83c67 0 96 -36 96 -83s-38 -80 -95 -80c-63 0 -97 31 -97 80zM41 666c0 47 36 83 96 83c67 0 96 -36 96 -83s-37 -80 -95 -80c-63 0 -97 31 -97 80z" />
    <glyph glyph-name="macron" unicode="&#xaf;" horiz-adv-x="500" 
d="M103 592v124h295v-124h-295z" />
    <glyph glyph-name="degree" unicode="&#xb0;" horiz-adv-x="399" 
d="M133 673c0 -43 25 -70 69 -70c37 0 67 28 67 70c0 43 -29 69 -67 69c-44 0 -69 -26 -69 -69zM70 672c0 74 60 128 132 128c70 0 127 -54 127 -128c0 -73 -57 -128 -127 -128c-78 0 -132 50 -132 128z" />
    <glyph glyph-name="acute" unicode="&#xb4;" horiz-adv-x="500" 
d="M116 656l178 160l93 -112l-194 -139z" />
    <glyph glyph-name="grave" unicode="`" horiz-adv-x="500" 
d="M209 816l180 -158l-79 -93l-194 139z" />
    <glyph glyph-name="cedilla" unicode="&#xb8;" horiz-adv-x="500" 
d="M138 -216l13 76c19 -5 44 -10 67 -10c28 0 40 7 40 25c0 20 -18 23 -59 23h-22l20 107h77l-8 -45c53 -5 98 -27 98 -86c0 -65 -43 -108 -125 -108c-43 0 -81 9 -101 18z" />
    <glyph glyph-name="dotaccent" unicode="&#x2d9;" horiz-adv-x="500" 
d="M137 665c0 60 49 90 112 90c66 0 114 -30 114 -90c0 -59 -47 -88 -114 -88c-62 0 -112 29 -112 88z" />
    <glyph glyph-name="ring" unicode="&#x2da;" horiz-adv-x="500" 
d="M214 682c0 -24 13 -36 37 -36c20 0 35 14 35 36c0 23 -14 35 -35 35c-24 0 -37 -14 -37 -35zM134 677c0 70 51 109 117 109c64 0 115 -36 115 -104c0 -66 -51 -106 -115 -106c-71 0 -117 35 -117 101z" />
    <glyph glyph-name="ogonek" unicode="&#x2db;" horiz-adv-x="500" 
d="M237 19l104 -7v-9c-45 -43 -73 -79 -73 -111c0 -19 9 -28 26 -28c15 0 29 3 50 10l23 -83c-28 -15 -78 -33 -128 -33c-84 0 -111 45 -111 95c0 62 47 115 109 166z" />
    <glyph glyph-name="tilde" unicode="&#x2dc;" horiz-adv-x="500" 
d="M349 754l95 -42c-15 -69 -51 -121 -111 -121c-58 0 -102 29 -129 29c-17 0 -28 -6 -42 -35l-94 39c16 65 53 129 109 129c54 0 98 -29 127 -29c18 0 32 4 45 30z" />
    <glyph glyph-name="hungarumlaut" unicode="&#x2dd;" horiz-adv-x="500" 
d="M143 804l122 -65l-121 -174l-97 49zM336 790l115 -67l-119 -158l-94 52z" />
    <glyph glyph-name="commaaccent" horiz-adv-x="500" 
d="M169 -228l38 186l149 -39l-71 -182z" />
    <glyph glyph-name="revcommaaccent" horiz-adv-x="500" 
d="M355 766l-46 -200l-157 39l74 195z" />
    <glyph glyph-name="tilde.cap" horiz-adv-x="500" 
d="M349 931l95 -42c-15 -69 -51 -121 -111 -121c-58 0 -102 29 -129 29c-17 0 -28 -6 -42 -35l-94 39c16 65 53 129 109 129c54 0 98 -29 127 -29c18 0 32 4 45 30z" />
    <glyph glyph-name="ring.cap" horiz-adv-x="500" 
d="M214 846c0 -24 13 -36 37 -36c20 0 35 14 35 36c0 23 -14 35 -35 35c-24 0 -37 -14 -37 -35zM134 841c0 70 51 109 117 109c64 0 115 -36 115 -104c0 -66 -51 -106 -115 -106c-71 0 -117 35 -117 101z" />
    <glyph glyph-name="circumflex.cap" horiz-adv-x="500" 
d="M201 922h99l115 -104l-77 -65l-88 55l-89 -55l-76 66z" />
    <glyph glyph-name="acute.cap" horiz-adv-x="500" 
d="M119 840l195 122l68 -122l-208 -92z" />
    <glyph glyph-name="grave.cap" horiz-adv-x="500" 
d="M187 962l195 -122l-55 -92l-208 92z" />
    <glyph glyph-name="dieresis.cap" horiz-adv-x="500" 
d="M275 846c0 47 35 83 96 83c67 0 96 -36 96 -83s-38 -80 -95 -80c-63 0 -97 31 -97 80zM41 846c0 47 36 83 96 83c67 0 96 -36 96 -83s-37 -80 -95 -80c-63 0 -97 31 -97 80z" />
    <glyph glyph-name="caron.cap" horiz-adv-x="500" 
d="M299 759h-99l-115 104l77 65l88 -55l89 55l76 -66z" />
    <glyph glyph-name="macron.cap" horiz-adv-x="500" 
d="M102 772v124h295v-124h-295z" />
    <glyph glyph-name="dotaccent.cap" horiz-adv-x="500" 
d="M137 844c0 60 49 90 112 90c66 0 114 -30 114 -90c0 -59 -47 -88 -114 -88c-62 0 -112 29 -112 88z" />
    <glyph glyph-name="cedilla.cap" horiz-adv-x="500" 
d="M138 -216l13 76c19 -5 44 -10 67 -10c28 0 40 7 40 25c0 20 -18 23 -59 23h-22l20 107h77l-8 -45c53 -5 98 -27 98 -86c0 -65 -43 -108 -125 -108c-43 0 -81 9 -101 18z" />
    <glyph glyph-name="hungarumlaut.cap" horiz-adv-x="500" 
d="M172 984l109 -86l-149 -150l-87 65zM380 967l102 -86l-145 -135l-83 68z" />
    <glyph glyph-name="apostrophe" unicode="&#x2bc;" horiz-adv-x="500" 
d="M191 659c0 40 32 71 75 71c53 0 82 -41 82 -92c0 -76 -49 -128 -131 -149l-18 55c40 14 54 29 61 56c-39 -5 -69 20 -69 59z" />
    <glyph glyph-name="commaaccent.cap" horiz-adv-x="500" 
d="M169 -228l38 186l149 -39l-71 -182z" />
    <glyph glyph-name="breve.cap" horiz-adv-x="500" 
d="M250 859c43 0 54 18 61 56l116 -16c-8 -84 -65 -137 -177 -137c-114 0 -169 47 -177 136l116 17c7 -39 22 -56 61 -56z" />
    <glyph glyph-name="caron.alt" horiz-adv-x="500" 
d="M153 506l26 214h158l-57 -214h-127z" />
    <glyph glyph-name="ogonek.cap" horiz-adv-x="500" 
d="M237 19l104 -7v-9c-45 -43 -73 -79 -73 -111c0 -19 9 -28 26 -28c15 0 29 3 50 10l23 -83c-28 -15 -78 -33 -128 -33c-84 0 -111 45 -111 95c0 62 47 115 109 166z" />
    <glyph glyph-name="uni00A0" unicode="&#xa0;" horiz-adv-x="175" 
 />
    <glyph glyph-name=".null" horiz-adv-x="0" 
 />
    <glyph glyph-name="CR" horiz-adv-x="0" 
 />
    </font>
</defs>
</svg>
